External Links:

General
Complete name : 2.Broke.Girls.S03E01.1080p.WEB-DL.DD5.1.H.264.HKD.mkv
Format : Matroska
Format version : Version 4 / Version 2
File size : 846 MiB
Duration : 21mn 37s
Overall bit rate : 5 472 Kbps
Movie name : ripped by CrazyHDSource.com

Video
ID : 1
Format : AVC
Format/Info : Advanced Video Codec
Format profile : High@L4.0
Format settings, CABAC : Yes
Format settings, ReFrames : 4 frames
Format settings, GOP : N=2
Codec ID : V_MPEG4/ISO/AVC
Duration : 21mn 37s
Bit rate : 4 979 Kbps
Width : 1 920 pixels
Height : 1 080 pixels
Display aspect ratio : 16:9
Frame rate mode : Constant
Frame rate : 23.976 fps
Color space : YUV
Chroma subsampling : 4:2:0
Bit depth : 8 bits
Scan type : Progressive
Bits/(Pixel*Frame) : 0.100
Stream size : 770 MiB (91%)
Title : ripped by CrazyHDSource.com
Language : English
Default : Yes
Forced : No
Color primaries : BT.709
Transfer characteristics : BT.709
Matrix coefficients : BT.709

Audio
ID : 2
Format : AC-3
Format/Info : Audio Coding 3
Mode extension : CM (complete main)
Format settings, Endianness : Big
Codec ID : A_AC3
Duration : 21mn 37s
Bit rate mode : Constant
Bit rate : 384 Kbps
Channel(s) : 6 channels
Channel positions : Front: L C R, Side: L R, LFE
Sampling rate : 48.0 KHz
Bit depth : 16 bits
Compression mode : Lossy
Stream size : 59.4 MiB (7%)
Language : English
Default : Yes
Forced : No

Text
ID : 3
Format : UTF-8
Codec ID : S_TEXT/UTF8
Codec ID/Info : UTF-8 Plain Text
Language : English
Default : No
Forced : No

Screenshot:

Sign up via clicking banner and a file link to creat a premium account.Then Get the access to protected links.

ExtMatrix Download Links

2.Broke.Girls.S03E02.And.the.Kickstarter.1080p.WEB-DL.DD5.1.H.264-BS.mkv
2.Broke.Girls.S03E03.And.the.Kitty.Kitty.Spank.Spank.1080p.WEB-DL.DD5.1.H.264-BS.mkv
2.Broke.Girls.S03E04.And.the.Group.Head.1080p.WEB-DL.DD5.1.H.264-BS.mkv
2.Broke.Girls.S03E05.And.the.Cronuts.720p.WEB-DL.DD5.1.H.264-BS.mkv
2.Broke.Girls.S03E05.And.the.Cronuts.1080p.WEB-DL.DD5.1.H.264-BS.mkv
2.Broke.Girls.S03E06.And.the.Piece.of.Sheet.1080p.WEB-DL.DD5.1.H.264-BS.mkv
2.Broke.Girls.S03E07.And.the.Girlfriend.Experience.1080p.WEB-DL.DD5.1.H.264-BS.mkv
2.Broke.Girls.S03E08.And.the..It..Hole.1080p.WEB-DL.DD5.1.H.264-BS.mkv
2.Broke.Girls.S03E09.And.the.Pastry.Porn.1080p.WEB-DL.DD5.1.H.264-BS.mkv
2.Broke.Girls.S03E10.And.the.First.Day.of.School.1080p.WEB-DL.DD5.1.H.264-BS.mkv
2.Broke.Girls.S03E11.And.The.Life.After.Death.1080p.WEB-DL.DD5.1.H.264-BS.mkv
2.Broke.Girls.S03E12.And.the.French.Kiss.1080p.WEB-DL.DD5.1.H.264-BS.mkv
2.Broke.Girls.S03E13.And.the.Big.But.1080p.WEB-DL.DD5.1.H.264-BS.mkv
2.Broke.Girls.S03E14.And.the.Dumpster.Sex.1080p.WEB-DL.DD5.1.H.264-BS.mkv
2.Broke.Girls.S03E15.And.the.Icing.On.The.Cake.1080p.WEB-DL.DD5.1.H.264-BS.mkv
2.Broke.Girls.S03E16.720p.HDTV.X264-DIMENSION.mkv
2.Broke.Girls.S03E17.720p.HDTV.X264-DIMENSION.mkv
2.Broke.Girls.S03E18.And.the.Near.Death.Experience.720p.WEB-DL.DD5.1.H.264-BS.mkv

Click Here for downloading linksp 2 Broke Girls S03E01 1080p WEB-DL DD5 1 H 264 HKD

Click Here for downloadingp links 2 Broke Girls S03E16 1080p pWEB-DL DD5 1 H 264 HKD

Click Here for downloadingp links 2 Broke Girls S03E17 1080p pWEB-DL DD5 1 H 264 HKD