2 Days in Paris 2007 720p HDTV x264-HDL

2 Days in Paris 2007 720p HDTV x264-HDL

 2 Days in Paris (2007)

96 min  –  Comedy | Drama | Romance  -
6.8

Your rating:

   -/10
Ratings: 6.8/10 from 17,740 users   Metascore: 67/100
Reviews: 95 user | 134 critic | 30 from Metacritic.com

 

Marion and Jack try to rekindle their relationship with a visit to Paris, home of Marion’s parents — and several of her ex-boyfriends.

 

Director:

Julie Delpy

Writer:

Julie Delpy

Stars:

Julie Delpy, Adam Goldberg and Daniel Brühl |

 

 

 

 

General

Complete name : 2.Days.in.Paris.2007.720p.HDTV.x264-HDL.mkv
Format : Matroska
Format version : Version 2
File size : 4.37 GiB
Duration : 1h 40mn
Overall bit rate : 6 239 Kbps
Encoded date : UTC 2010-09-24 16:02:57
Writing application : mkvmerge v4.2.0 (‘No Talking’) gebaut am Jul 28 2010 18:38:23
Writing library : libebml v1.0.0 + libmatroska v1.0.0

Video
ID : 1
Format : AVC
Format/Info : Advanced Video Codec
Format profile : High@L4.1
Format settings, CABAC : Yes
Format settings, ReFrames : 3 frames
Muxing mode : Header stripping
Codec ID : V_MPEG4/ISO/AVC
Duration : 1h 40mn
Bit rate : 5 854 Kbps
Width : 1 280 pixels
Height : 696 pixels
Display aspect ratio : 1.85:1
Frame rate : 23.976 fps
Color space : YUV
Chroma subsampling : 4:2:0
Bit depth : 8 bits
Scan type : Progressive
Bits/(Pixel*Frame) : 0.274
Stream size : 4.01 GiB (92%)
Writing library : x264 core 104 r1713 c276662
Encoding settings : cabac=1 / ref=4 / deblock=1:-1:-1 / analyse=0x3:0x133 / me=umh / subme=9 / psy=1 / psy_rd=1.00:0.15 / mixed_ref=1 / me_range=16 / chroma_me=1 / trellis=2 / 8x8dct=1 / cqm=0 / deadzone=21,11 / fast_pskip=1 / chroma_qp_offset=-3 / threads=6 / sliced_threads=0 / slices=4 / nr=0 / decimate=1 / interlaced=0 / constrained_intra=0 / bframes=3 / b_pyramid=1 / b_adapt=2 / b_bias=0 / direct=3 / weightb=1 / open_gop=0 / weightp=2 / keyint=24 / keyint_min=2 / scenecut=40 / intra_refresh=0 / rc_lookahead=24 / rc=2pass / mbtree=1 / bitrate=5854 / ratetol=1.0 / qcomp=0.60 / qpmin=10 / qpmax=51 / qpstep=4 / cplxblur=20.0 / qblur=0.5 / vbv_maxrate=40000 / vbv_bufsize=30000 / ip_ratio=1.40 / aq=1:1.00 / nal_hrd=none
Language : English
Default : Yes
Forced : No

Audio
ID : 2
Format : AC-3
Format/Info : Audio Coding 3
Mode extension : CM (complete main)
Format settings, Endianness : Big
Muxing mode : Header stripping
Codec ID : A_AC3
Duration : 1h 40mn
Bit rate mode : Constant
Bit rate : 384 Kbps
Channel(s) : 6 channels
Channel positions : Front: L C R, Side: L R, LFE
Sampling rate : 48.0 KHz
Bit depth : 16 bits
Compression mode : Lossy
Delay relative to video : 32ms
Stream size : 275 MiB (6%)
Language : English
Default : Yes
Forced : No

Text
ID : 3
Format : UTF-8
Codec ID : S_TEXT/UTF8
Codec ID/Info : UTF-8 Plain Text
Language : English
Default : Yes
Forced : No

 

File Name Size
2.Days.in.Paris.2007.720p.HDTV.x264-HDL.mkv 4.37 GB

 

Screenshot:
2 Days in Paris 2007 720p HDTV x264-HDL

Sign up via clicking banner and a file link to creat a premium account.
2 Days in Paris 2007 720p HDTV x264-HDL
ExtMatrix Download Links