24 S07 720p BluRay DTS x264-CtrlHD

Series Info
# of Seasons: 8
Country: US
Air Day: Monday
Air Time: 9:00 PM
First Aired: 2001-11-06
Rating: TV-MA
Series Status: Canceled/Ended
Runtime: 60 Minutes
Network: FOX
Classification: Scripted
TVDB Rating: 8.8
External Links:
File Name Size
24.S08E24.720p.Blu ray.x264 CtrlHD.mkv 1.70 GB
24.S08E23.720p.Blu ray.x264 CtrlHD.mkv 1.63 GB
24.S08E22.720p.Blu ray.x264 CtrlHD.mkv 1.83 GB
24.S08E21.720p.Blu ray.x264 CtrlHD.mkv 1.56 GB
24.S08E20.720p.Blu ray.x264 CtrlHD.mkv 1.75 GB
24.S08E19.720p.Blu ray.x264 CtrlHD.mkv 1.69 GB
24.S08E18.720p.Blu ray.x264 CtrlHD.mkv 1.77 GB
24.S08E17.720p.Blu ray.x264 CtrlHD.mkv 1.68 GB
24.S08E16.720p.Blu ray.x264 CtrlHD.mkv 2.38 GB
24.S08E15.720p.Blu ray.x264 CtrlHD.mkv 2.12 GB
24.S08E14.720p.Blu ray.x264 CtrlHD.mkv 2.48 GB
24.S08E13.720p.Blu ray.x264 CtrlHD.mkv 2.99 GB
24.S08E12.720p.Blu ray.x264 CtrlHD.mkv 2.36 GB
24.S08E11.720p.Blu ray.x264 CtrlHD.mkv 2.21 GB
24.S08E10.720p.Blu ray.x264 CtrlHD.mkv 2.46 GB
24.S08E09.720p.Blu ray.x264 CtrlHD.mkv 2.58 GB
24.S08E08.720p.Blu ray.x264 CtrlHD.mkv 2.56 GB
24.S08E07.720p.Blu ray.x264 CtrlHD.mkv 2.00 GB
24.S08E06.Extended.720p.Blu ray.x264 CtrlHD.mkv 2.12 GB
24.S08E05.720p.Blu ray.x264 CtrlHD.mkv 2.16 GB
24.S08E04.Extended.720p.Blu ray.x264 CtrlHD.mkv 2.37 GB
24.S08E03.720p.Blu ray.x264 CtrlHD.mkv 1.93 GB
24.S08E02.720p.Blu ray.x264 CtrlHD.mkv 1.90 GB
24.S08E01.720p.Blu ray.x264 CtrlHD.mkv 2.29 GB

General
Complete name : 24.S08E01.720p.Blu-ray.x264-CtrlHD.mkv
Format : Matroska
File size : 2.29 GiB
Duration : 42mn 41s
Overall bit rate : 7 686 Kbps
Encoded date : UTC 2011-02-15 19:36:11
Writing application : mkvmerge v4.4.0 (‘Die Wiederkehr’) built on Oct 31 2010 21:52:48
Writing library : libebml v1.0.0 + libmatroska v1.0.0

Video
ID : 1
Format : AVC
Format/Info : Advanced Video Codec
Format profile : High@L4.1
Format settings, CABAC : Yes
Format settings, ReFrames : 9 frames
Codec ID : V_MPEG4/ISO/AVC
Duration : 42mn 41s
Bit rate : 6 893 Kbps
Width : 1 280 pixels
Height : 720 pixels
Display aspect ratio : 16:9
Frame rate : 23.976 fps
Color space : YUV
Chroma subsampling : 4:2:0
Bit depth : 8 bits
Scan type : Progressive
Bits/(Pixel*Frame) : 0.312
Stream size : 2.06 GiB (90%)
Writing library : x264 core 112 r1867 22bfd31
Encoding settings : cabac=1 / ref=9 / deblock=1:-3:-3 / analyse=0x3:0x133 / me=umh / subme=10 /
Language : English

Audio
ID : 2
Format : AC-3
Format/Info : Audio Coding 3
Mode extension : CM (complete main)
Codec ID : A_AC3
Duration : 42mn 41s
Bit rate mode : Constant
Bit rate : 640 Kbps
Channel(s) : 6 channels
Channel positions : Front: L C R, Side: L R, LFE
Sampling rate : 48.0 KHz
Bit depth : 16 bits
Compression mode : Lossy
Stream size : 195 MiB (8%)
Language : English

Text
ID : 3
Format : ASS
Codec ID : S_TEXT/ASS
Codec ID/Info : Advanced Sub Station Alpha
Compression mode : Lossless
Language : English

Menu
00:00:00.000 : en:00:00:00.000
00:04:01.283 : en:00:04:01.283
00:06:19.671 : en:00:06:19.671
00:11:34.235 : en:00:11:34.235
00:15:23.131 : en:00:15:23.131
00:18:27.606 : en:00:18:27.606
00:22:00.986 : en:00:22:00.986
00:24:49.655 : en:00:24:49.655
00:28:54.524 : en:00:28:54.524
00:32:12.305 : en:00:32:12.305
00:36:08.958 : en:00:36:08.958
00:38:27.472 : en:00:38:27.472
24.S08.720p.Blu-ray.x264-CtrlHD

Sign up via clicking banner and a file link to creat a premium account.

ExtMatrix Links

24.S08E01.720p.Blu-ray.x264-CtrlHD.mkv
24.S08E02.720p.Blu-ray.x264-CtrlHD.mkv
24.S08E03.720p.Blu-ray.x264-CtrlHD.mkv
24.S08E04.Extended.720p.Blu-ray.x264-CtrlHD.mkv
24.S08E05.720p.Blu-ray.x264-CtrlHD.mkv
24.S08E06.Extended.720p.Blu-ray.x264-CtrlHD.mkv
24.S08E07.720p.Blu-ray.x264-CtrlHD.mkv
24.S08E08.720p.Blu-ray.x264-CtrlHD.mkv
24.S08E09.720p.Blu-ray.x264-CtrlHD.mkv
24.S08E10.720p.Blu-ray.x264-CtrlHD.mkv
24.S08E11.720p.Blu-ray.x264-CtrlHD.mkv
24.S08E12.720p.Blu-ray.x264-CtrlHD.mkv
24.S08E13.720p.Blu-ray.x264-CtrlHD.mkv
24.S08E14.720p.Blu-ray.x264-CtrlHD.mkv
24.S08E15.720p.Blu-ray.x264-CtrlHD.mkv
24.S08E16.720p.Blu-ray.x264-CtrlHD.mkv
24.S08E17.720p.Blu-ray.x264-CtrlHD.mkv
24.S08E18.720p.Blu-ray.x264-CtrlHD.mkv
24.S08E19.720p.Blu-ray.x264-CtrlHD.mkv
24.S08E20.720p.Blu-ray.x264-CtrlHD.mkv
24.S08E21.720p.Blu-ray.x264-CtrlHD.mkv
24.S08E22.720p.Blu-ray.x264-CtrlHD.mkv
24.S08E23.720p.Blu-ray.x264-CtrlHD.mkv
24.S08E24.720p.Blu-ray.x264-CtrlHD.mkv