Series Info
# of Seasons: 2
Country: UK
Air Day: Thursday
Air Time: 21:00
First Aired: 2012-12-06
Rating:
Series Status: New Series
Runtime: 25 Minutes
Network: Sky Arts
Classification: Mini-Series
TVDB Rating: 0.0
External Links:

 A Young Doctor’s Notebook (2012– )

TV Series
8.1

Your rating:

   -/10
Ratings: 8.1/10 from 321 users
Reviews: 1 user

General
Complete name : A.Young.Doctors.Notebook.S01E03.720p.BluRay.DTS.x264-DON.mkv
Format : Matroska
Format version : Version 4 / Version 2
File size : 1.15 GiB
Duration : 23mn 25s
Overall bit rate : 7 005 Kbps

Video
ID : 1
Format : AVC
Format/Info : Advanced Video Codec
Format profile : High@L4.1
Format settings, CABAC : Yes
Format settings, ReFrames : 9 frames
Codec ID : V_MPEG4/ISO/AVC
Duration : 23mn 25s
Bit rate : 5 500 Kbps
Width : 1 280 pixels
Height : 720 pixels
Display aspect ratio : 16:9
Frame rate mode : Constant
Frame rate : 25.000 fps
Color space : YUV
Chroma subsampling : 4:2:0
Bit depth : 8 bits
Scan type : Progressive
Bits/(Pixel*Frame) : 0.239
Stream size : 897 MiB (76%)
Writing library : x264 core 142 r2389kMod 956c8d8
Encoding settings : cabac=1 / ref=9 / deblock=1:-3:-3 / analyse=0x3:0x113 / me=umh / subme=11 / psy=1 /

Audio
ID : 2
Format : DTS
Format/Info : Digital Theater Systems
Mode : 16
Format settings, Endianness : Big
Codec ID : A_DTS
Duration : 23mn 25s
Bit rate mode : Constant
Bit rate : 1 509 Kbps
Channel(s) : 6 channels
Channel positions : Front: L C R, Side: L R, LFE
Sampling rate : 48.0 KHz
Bit depth : 24 bits
Compression mode : Lossy
Stream size : 253 MiB (22%)
Language : English
Default : Yes
Forced : No

Text #1
ID : 3
Format : UTF-8
Codec ID : S_TEXT/UTF8
Codec ID/Info : UTF-8 Plain Text
Language : English
Default : No
Forced : No

Text #2
ID : 4
Format : UTF-8
Codec ID : S_TEXT/UTF8
Codec ID/Info : UTF-8 Plain Text
Title : SDH
Language : English
Default : No
Forced : No

Menu
00:00:00.000 : en:00:00:00.000
00:06:27.000 : en:00:06:27.000
00:11:58.000 : en:00:11:58.000
00:17:16.000 : en:00:17:16.000

File Name Size
A.Young.Doctor’s.Notebook.S01.Behind.the.Scenes.720p.BluRay.DTS.x264 DON.mkv 552.13 MB
A.Young.Doctor’s.Notebook.S01E04.720p.BluRay.DTS.x264 DON.mkv 1.19 GB
A.Young.Doctor’s.Notebook.S01E03.720p.BluRay.DTS.x264 DON.mkv 1.15 GB
A.Young.Doctor’s.Notebook.S01E02.720p.BluRay.DTS.x264 DON.mkv 1.08 GB
A.Young.Doctor’s.Notebook.S01E01.720p.BluRay.DTS.x264 DON.mkv 1.15 GB

Screenshot:

 

 

Sign up via clicking banner and a file link to creat a premium account.

ExtMatrix Download Links

A.Young.Doctors.Notebook.S01E01.720p.BluRay.DTS.x264-DON.mkv
A.Young.Doctors.Notebook.S01E02.720p.BluRay.DTS.x264-DON.mkv
A.Young.Doctors.Notebook.S01E03.720p.BluRay.DTS.x264-DON.mkv
A.Young.Doctors.Notebook.S01E04.720p.BluRay.DTS.x264-DON.mkv