External Links:

General
Complete name : American.Dad.S09E01.1080p.WEB-DL.DD5.1.H.264.HKD.mkv
Format : Matroska
Format version : Version 4 / Version 2
File size : 691 MiB
Duration : 22mn 5s
Overall bit rate : 4 372 Kbps
Movie name : ripped by CrazyHDSource.com

Video
ID : 1
Format : AVC
Format/Info : Advanced Video Codec
Format profile : High@L4.0
Format settings, CABAC : Yes
Format settings, ReFrames : 4 frames
Codec ID : V_MPEG4/ISO/AVC
Duration : 22mn 5s
Bit rate : 3 901 Kbps
Width : 1 912 pixels
Height : 1 072 pixels
Display aspect ratio : 16:9
Frame rate mode : Constant
Frame rate : 23.976 fps
Color space : YUV
Chroma subsampling : 4:2:0
Bit depth : 8 bits
Scan type : Progressive
Bits/(Pixel*Frame) : 0.079
Stream size : 616 MiB (89%)
Title : ripped by CrazyHDSource.com
Language : English
Default : Yes
Forced : No
Color primaries : BT.709
Transfer characteristics : BT.709
Matrix coefficients : BT.709

Audio
ID : 2
Format : AC-3
Format/Info : Audio Coding 3
Mode extension : CM (complete main)
Format settings, Endianness : Big
Codec ID : A_AC3
Duration : 22mn 5s
Bit rate mode : Constant
Bit rate : 384 Kbps
Channel(s) : 6 channels
Channel positions : Front: L C R, Side: L R, LFE
Sampling rate : 48.0 KHz
Bit depth : 16 bits
Compression mode : Lossy
Stream size : 60.7 MiB (9%)
Language : English
Default : Yes
Forced : No

Text
ID : 3
Format : UTF-8
Codec ID : S_TEXT/UTF8
Codec ID/Info : UTF-8 Plain Text
Language : English
Default : No
Forced : No

American.Dad.S09E01.Steve.and.Snots.Testubular.Adventure.1080p.WEB DL.DD5.1.H264 HKD.mkv 673.99 MB
American.Dad.S09E02.Poltergasm.1080p.WEB DL.DD5.1.H264 iT00NZ.mkv 841.13 MB
American.Dad.S09E03.Buck.Wild.1080p.WEB DL.DD5.1.H264 iT00NZ.mkv 856.10 MB
American.Dad.S09E04.Crotchwalkers.1080p.WEB DL.DD5.1.H264 HKD.mkv 826.04 MB
American.Dad.S09E05.Kung.Pao.Turkey.1080p.WEB DL.DD5.1.H264 HKD.mkv 775.74 MB
American.Dad.S09E06.Independent.Movie.1080p.WEB DL.DD5.1.H264 HKD.mkv 835.74 MB
American.Dad.S09E07.Faking.Bad.1080p.WEB DL.DD5.1.H264 HKD.mkv 740.68 MB
American.Dad.S09E08.Minstrel.Krampus.1080p.WEB DL.DD5.1.H264 HKD.mkv 788.95 MB
American.Dad.S09E09.Vision.Impossible.1080p.WEB DL.DD5.1.H264 HKD.mkv 759.77 MB
American.Dad.S09E10.Familyland.1080p.WEB DL.DD5.1.H264 HKD.mkv 796.12 MB
American.Dad.S09E11.Cock.of.the.Sleepwalk.1080p.WEB DL.DD5.1.H.264 HKD.mkv 762.85 MB
American.Dad.S09E12.Introducing.The.Naughty.Stewardesses.1080p.WEB DL.DD5.1.H.264 HKD.mkv 753.58 MB
American.Dad.S09E13.I.Aint.No.Holodeck.Boy.1080p.WEB DL.DD5.1.H.264 HKD.mkv 738.89 MB
American.Dad.S09E14.Stan.Goes.On.the.Pill.1080p.WEB DL.DD5.1.H.264 HKD.mkv 728.97 MB
American.Dad.S09E15.Honey.Im.Homeland.1080p.WEB DL.DD5.1.H.264 HKD.mkv 751.12 MB
American.Dad.S09E16.She.Swill.Survive.1080p.WEB DL.DD5.1.H.264 HKD.mkv 702.16 MB
American.Dad.S09E17.Rubberneckers.1080p.WEB DL.DD5.1.H.264 HKD.mkv 759.29 MB
American.Dad.S09E18.Permanent.Record.Wrecker.1080p.WEB DL.DD5.1.H.264 HKD.mkv 736.41 MB
American.Dad.S09E19.News.Glance.with.Genevieve.Vavance.1080p.WEB DL.DD5.1.H.264 HKD.mkv 726.92 MB
American.Dad.S09E20.The.Longest.Distance.Relationship.1080p.WEB DL.DD5.1.H.264 HKD.mkv 782.21 MB

American.Dad.S09.Season.Premiere.Sneak.Peek.1080p.WEB-DL.AAC2.0.H.264-HKD.mkv 81.69 MB
Screenshot:

Sign up via clicking banner and a file link to creat a premium account.Then Get the access to protected links.

ExtMatrix Download Links

Click Here for downloading links American Dad S09 Complete Season 1080p WEB-DL DD5 1 H 264 iT00NZ HKD