Useful link:

MediaInfo:

General
Complete name : Among.Us.2017.NOT.RATED.1080p.iTunes.WEB-DL.DD5.1.H.264.HKD.mkv
Format : Matroska
Format version : Version 4 / Version 2
File size : 3.10 GiB
Duration : 1h 30mn
Overall bit rate : 4 931 Kbps
Movie name : ripped by CrazyHDSource.com
Video #1
ID : 1
Format : AVC
Format/Info : Advanced Video Codec
Format profile : High@L4.0
Format settings, CABAC : Yes
Format settings, ReFrames : 5 frames
Codec ID : V_MPEG4/ISO/AVC
Duration : 1h 30mn
Bit rate : 4 449 Kbps
Width : 1 920 pixels
Height : 792 pixels
Display aspect ratio : 2.40:1
Frame rate mode : Constant
Frame rate : 23.976 fps
Color space : YUV
Chroma subsampling : 4:2:0
Bit depth : 8 bits
Scan type : Progressive
Bits/(Pixel*Frame) : 0.122
Stream size : 2.80 GiB (90%)
Title : ripped by CrazyHDSource.com
Language : English
Default : Yes
Forced : No
Color primaries : BT.709
Transfer characteristics : BT.709
Matrix coefficients : BT.709
Audio #2
ID : 2
Format : AC-3
Format/Info : Audio Coding 3
Mode extension : CM (complete main)
Format settings, Endianness : Big
Codec ID : A_AC3
Duration : 1h 30mn
Bit rate mode : Constant
Bit rate : 384 Kbps
Channel count : 6 channels
Channel positions : Front: L C R, Side: L R, LFE
Sampling rate : 48.0 KHz
Bit depth : 16 bits
Compression mode : Lossy
Stream size : 247 MiB (8%)
Language : English
Default : Yes
Forced : No
Text #3
ID : 3
Format : UTF-8
Codec ID : S_TEXT/UTF8
Codec ID/Info : UTF-8 Plain Text
Language : English
Default : No
Forced : No
Menu
00:00:00.000 : en:Opening Sequence
00:07:01.000 : en:I See Tree’s
00:12:33.000 : en:Is That You?
00:18:01.000 : en:No I Haven’t
00:23:22.000 : en:Missing Boy
00:28:51.000 : en:You Lock The Door?
00:33:08.000 : en:I’m Starving
00:39:27.000 : en:Do Some Good
00:43:57.000 : en:Hold This
00:50:57.000 : en:Know Idea What’s Coming
00:54:30.000 : en:That Way
00:59:57.000 : en:Mommy
01:04:02.000 : en:The Missing Boy?
01:11:04.000 : en:Jump Back In
01:19:39.000 : en:Come Back
01:27:47.000 : en:End Credits

Screenshot:

Sign up via clicking banner and a file link to creat a premium account.Then Get the access to protected links.

ExtMatrix Download Links

Click Here for downloading links Among Us 2017 NOT RATED 1080p iTunes WEB-DL DD5 1 H 264 HKD