External Links:   

General
Complete name : anger.management.s02e12.720p.bluray.x264-demand.mkv
Format : Matroska
Format version : Version 4 / Version 2
File size : 890 MiB
Duration : 22mn 30s
Overall bit rate : 5 532 Kbps

Video
ID : 1
Format : AVC
Format/Info : Advanced Video Codec
Format profile : High@L4.1
Format settings, CABAC : Yes
Format settings, ReFrames : 5 frames
Codec ID : V_MPEG4/ISO/AVC
Duration : 22mn 30s
Bit rate : 4 023 Kbps
Width : 1 280 pixels
Height : 720 pixels
Display aspect ratio : 16:9
Frame rate mode : Constant
Frame rate : 23.976 fps
Color space : YUV
Chroma subsampling : 4:2:0
Bit depth : 8 bits
Scan type : Progressive
Bits/(Pixel*Frame) : 0.182
Stream size : 630 MiB (71%)
Title : X264
Writing library : x264 core 133 r2334 a3ac64b
Encoding settings : cabac=1 / ref=5 / deblock=1:0:0 / analyse=0x3:0x133 / me=umh / subme=7 / psy=1 /

Audio
ID : 2
Format : DTS
Format/Info : Digital Theater Systems
Mode : 16
Format settings, Endianness : Big
Codec ID : A_DTS
Duration : 22mn 30s
Bit rate mode : Constant
Bit rate : 1 509 Kbps
Channel(s) : 6 channels
Channel positions : Front: L C R, Side: L R, LFE
Sampling rate : 48.0 KHz
Bit depth : 24 bits
Compression mode : Lossy
Stream size : 243 MiB (27%)
Title : DTS
Language : English
Default : Yes
Forced : No

Menu
00:00:00.000 : en:00:00:00.000
00:02:14.551 : en:00:02:14.551
00:04:58.340 : en:00:04:58.340
00:09:40.455 : en:00:09:40.455
00:17:20.957 : en:00:17:20.957

File Name Size
anger.management.s02e01.720p.bluray.x264 demand.mkv 890.62 MB
anger.management.s02e02.720p.bluray.x264 demand.mkv 890.56 MB
anger.management.s02e03.720p.bluray.x264 demand.mkv 890.61 MB
anger.management.s02e04.720p.bluray.x264 demand.mkv 890.57 MB
anger.management.s02e05.720p.bluray.x264 demand.mkv 890.57 MB
anger.management.s02e06.720p.bluray.x264 demand.mkv 890.59 MB
anger.management.s02e07.720p.bluray.x264 demand.mkv 890.50 MB
anger.management.s02e08.720p.bluray.x264 demand.mkv 890.54 MB
anger.management.s02e09.720p.bluray.x264 demand.mkv 890.72 MB
anger.management.s02e10.720p.bluray.x264 demand.mkv 890.53 MB
anger.management.s02e11.720p.bluray.x264 demand.mkv 890.24 MB
anger.management.s02e12.720p.bluray.x264 demand.mkv 890.45 MB
anger.management.s02e13.720p.bluray.x264 demand.mkv 890.31 MB
anger.management.s02e14.720p.bluray.x264 demand.mkv 890.42 MB
anger.management.s02e15.720p.bluray.x264 demand.mkv 890.52 MB
anger.management.s02e16.720p.bluray.x264 demand.mkv 890.78 MB
anger.management.s02e17.720p.bluray.x264 demand.mkv 890.30 MB
anger.management.s02e18.720p.bluray.x264 demand.mkv 890.44 MB
anger.management.s02e19.720p.bluray.x264 demand.mkv 890.60 MB
anger.management.s02e20.720p.bluray.x264 demand.mkv 890.24 MB
anger.management.s02e21.720p.bluray.x264 demand.mkv 890.42 MB
anger.management.s02e22.720p.bluray.x264 demand.mkv 890.49 MB

Screenshot:

Sign up via clicking banner and a file link to creat a premium account.Then Get the access to protected links.

ExtMatrix Download Links

anger.management.s02e01.720p.bluray.x264-demand.mkv
anger.management.s02e02.720p.bluray.x264-demand.mkv
anger.management.s02e03.720p.bluray.x264-demand.mkv
anger.management.s02e04.720p.bluray.x264-demand.mkv
anger.management.s02e05.720p.bluray.x264-demand.mkv
anger.management.s02e06.720p.bluray.x264-demand.mkv
anger.management.s02e07.720p.bluray.x264-demand.mkv
anger.management.s02e08.720p.bluray.x264-demand.mkv
anger.management.s02e09.720p.bluray.x264-demand.mkv
anger.management.s02e10.720p.bluray.x264-demand.mkv
anger.management.s02e11.720p.bluray.x264-demand.mkv
anger.management.s02e12.720p.bluray.x264-demand.mkv
anger.management.s02e13.720p.bluray.x264-demand.mkv
anger.management.s02e14.720p.bluray.x264-demand.mkv
anger.management.s02e15.720p.bluray.x264-demand.mkv
anger.management.s02e16.720p.bluray.x264-demand.mkv
anger.management.s02e17.720p.bluray.x264-demand.mkv
anger.management.s02e18.720p.bluray.x264-demand.mkv
anger.management.s02e19.720p.bluray.x264-demand.mkv
anger.management.s02e20.720p.bluray.x264-demand.mkv
anger.management.s02e21.720p.bluray.x264-demand.mkv
anger.management.s02e22.720p.bluray.x264-demand.mkv