Series Info
# of Seasons: 5
Country: US
Air Day: Thursday
Air Time: 10:00 PM
First Aired: 2009-09-17
Rating: TV-MA
Series Status: Returning Series
Runtime: 30 Minutes
Network: FX
Classification: Animation
TVDB Rating: 9.2
External Links:

Archer (2009– )

TV Series – 30 min – tvAnimation | tvAction | tvComedy
8.9

Your rating:

-/10
Ratings: 8.9/10 from 22,882 users
Reviews: 34 user | 17 critic

 

At ISIS, an international spy agency, global crises are merely opportunities for its highly trained employees to confuse, undermine, betray and royally screw each other.

 

General
Complete name : Archer.2009.S05E01.White.Elephant.1080p.WEB-DL.DD5.1.H264-iT00NZ.mkv
Format : Matroska
Format version : Version 4 / Version 2
File size : 691 MiB
Duration : 19mn 49s
Overall bit rate : 4 875 Kbps

Video
ID : 1
Format : AVC
Format/Info : Advanced Video Codec
Format profile : High@L4.0
Format settings, CABAC : Yes
Format settings, ReFrames : 4 frames
Codec ID : V_MPEG4/ISO/AVC
Duration : 19mn 49s
Bit rate : 4 394 Kbps
Width : 1 912 pixels
Height : 1 072 pixels
Display aspect ratio : 16:9
Frame rate mode : Constant
Frame rate : 23.976 fps
Color space : YUV
Chroma subsampling : 4:2:0
Bit depth : 8 bits
Scan type : Progressive
Bits/(Pixel*Frame) : 0.089
Stream size : 623 MiB (90%)
Language : English
Default : Yes
Forced : No
Color primaries : BT.709
Transfer characteristics : BT.709
Matrix coefficients : BT.709

Audio
ID : 2
Format : AC-3
Format/Info : Audio Coding 3
Mode extension : CM (complete main)
Format settings, Endianness : Big
Codec ID : A_AC3
Duration : 19mn 49s
Bit rate mode : Constant
Bit rate : 384 Kbps
Channel(s) : 6 channels
Channel positions : Front: L C R, Side: L R, LFE
Sampling rate : 48.0 KHz
Bit depth : 16 bits
Compression mode : Lossy
Delay relative to video : 20ms
Stream size : 54.4 MiB (8%)
Language : English
Default : Yes
Forced : No

Text
ID : 3
Format : UTF-8
Codec ID : S_TEXT/UTF8
Codec ID/Info : UTF-8 Plain Text
Language : English
Default : Yes
Forced : No

Screenshot:

 

Sign up via clicking banner and a file link to creat a premium account.

ExtMatrix Download Links

Archer.2009.S05E01.White.Elephant.1080p.WEB-DL.DD5.1.H264-iT00NZ.mkv
Archer.2009.S05E02.A.Kiss.While.Dying.1080p.WEB-DL.DD5.1.H.264-iT00NZ.mkv
Archer.2009.S05E03.A.Debt.of.Honor.1080p.WEB-DL.DD5.1.H.264-iT00NZ.mkv
archer.2009.s05e04.720p.hdtv.x264-killers.mkv
archer.2009.s05e05.720p.hdtv.x264-2hd.mkv
archer.2009.s05e06.720p.hdtv.x264-killers.mkv
archer.2009.s05e07.720p.hdtv.x264-2hd.mkv
Archer.2009.S05E10.Palace.Intrigue.Part.1.1080p.WEB-DL.DD5.1.H.264-iT00NZ.mkv

Click Here for downloading links Archer 2009 S05E04 1080p pWEB-DL DD5 1 H 264 HKD

Click Here for downloading links Archer 2009 S05E05 1080p pWEB-DL DD5 1 H 264 HKD

Click Here for downloading links Archer 2009 S05E06 1080p pWEB-DL DD5 1 H 264 HKD

Click Here for downloading links Archer 2009 S05E07 1080p pWEB-DL DD5 1 H 264 HKD

Click Here for downloading links Archer 2009 S05E08 1080p pWEB-DL DD5 1 H 264 HKD

Click Here for downloading links Archer 2009 S05E09 1080p pWEB-DL DD5 1 H 264 HKD

Click Here for downloading links Archer 2009 S05E11 1080p pWEB-DL DD5 1 H 264 HKD

Click Here for downloading links Archer 2009 S05E12 1080p pWEB-DL DD5 1 H 264 HKD

Click Here for downloading links Archer 2009 S05E13 1080p pWEB-DL DD5 1 H 264 HKD