External Links:

General
Complete name : Arrow.S02E01.1080p.WEB-DL.DD5.1.H.264.HKD.mkv
Format : Matroska
Format version : Version 4 / Version 2
File size : 1.70 GiB
Duration : 42mn 24s
Overall bit rate : 5 737 Kbps
Movie name : ripped by CrazyHDSource.com

Video
ID : 1
Format : AVC
Format/Info : Advanced Video Codec
Format profile : High@L4.0
Format settings, CABAC : Yes
Format settings, ReFrames : 4 frames
Codec ID : V_MPEG4/ISO/AVC
Duration : 42mn 24s
Bit rate : 5 239 Kbps
Width : 1 916 pixels
Height : 1 080 pixels
Display aspect ratio : 16:9
Frame rate mode : Constant
Frame rate : 23.976 fps
Color space : YUV
Chroma subsampling : 4:2:0
Bit depth : 8 bits
Scan type : Progressive
Bits/(Pixel*Frame) : 0.106
Stream size : 1.55 GiB (91%)
Title : ripped by CrazyHDSource.com
Language : English
Default : Yes
Forced : No
Color primaries : BT.709
Transfer characteristics : BT.709
Matrix coefficients : BT.709

Audio
ID : 2
Format : AC-3
Format/Info : Audio Coding 3
Mode extension : CM (complete main)
Format settings, Endianness : Big
Codec ID : A_AC3
Duration : 42mn 24s
Bit rate mode : Constant
Bit rate : 384 Kbps
Channel(s) : 6 channels
Channel positions : Front: L C R, Side: L R, LFE
Sampling rate : 48.0 KHz
Bit depth : 16 bits
Compression mode : Lossy
Stream size : 116 MiB (7%)
Language : English
Default : Yes
Forced : No

Text
ID : 3
Format : UTF-8
Codec ID : S_TEXT/UTF8
Codec ID/Info : UTF-8 Plain Text
Language : English
Default : No
Forced : No
Arrow.S02E01.City.of.Heroes.720p.WEB-DL.DD5.1.H.264-BS.mkv 1.27 GB
Arrow.S02E01.City.of.Heroes.1080p.WEB DL.DD5.1.H.264 HKD.mkv 1.70 GB
Screenshot:

Sign up via clicking banner and a file link to creat a premium account.Then Get the access to protected links.

ExtMatrix Download Links

Arrow.S02.Special-Year.One.720p.HDTV.x264-BAJSKORV.mkv
Arrow S02S01 1080i HDTV DD5.1 MPEG2.ts
Arrow.S02E01.City.of.Heroes.720p.WEB-DL.DD5.1.H.264-BS.mkv
Arrow.S02E02.Identity.720p.WEB-DL.DD5.1.H.264-BS.mkv
Arrow.S02E03.Broken.Dolls.720p.WEB-DL.DD5.1.H.264-BS.mkv
Arrow.S02E04.Crucible.1080p.WEB-DL.DD5.1.H.264-BS.mkv
Arrow.S02E04.Crucible.720p.WEB-DL.DD5.1.H.264-BS.mkv
Arrow.S02E05.League.of.Assassins.720p.WEB-DL.DD5.1.H.264-BS.mkv
Arrow.S02E06. Keep.Your.Enemies.Closer.720p.WEB-DL.DD5.1.H.264-BS.mkv
Arrow.S02E06. Keep.Your.Enemies.Closer.1080p.WEB-DL.DD5.1.H.264-BS.mkv
Arrow.S02E07.State.v.Queen.720p.WEB-DL.DD5.1.H.264-BS.mkv
Arrow.S02E08.720p.HDTV.X264-DIMENSION.mkv
Arrow.S02E08.1080p.WEB-DL.DD5.1.H.264.HKD.part1.rar
Arrow.S02E08.1080p.WEB-DL.DD5.1.H.264.HKD.part2.rar
Arrow.S02E09.Three.Ghosts.720p.WEB-DL.DD5.1.H.264-BS.mkv
Arrow.S02E10.Blast.Radius.720p.WEB-DL.DD5.1.H.264-BS.mkv
Arrow.S02E10.Blast.Radius.1080p.WEB-DL.DD5.1.H.264-BS.mkv
Arrow.S02E11.Blind.Spot.720p.WEB-DL.DD5.1.H.264-BS.mkv

Click Here for downloading links Arrow S02E01 1080p WEB-DL DD5.1 H.264 HKD

Click Here for downloading links Arrow S02E02 1080p WEB-DL DD5.1 H.264 HKD

Click Here for downloading links Arrow S02E03 1080p WEB-DL DD5.1 H.264 HKD

Click Here for downloading links Arrow S02E05 1080p WEB-DL DD5.1 H.264 HKD

Click Here for downloading links Arrow S02E07 1080p WEB-DL DD5.1 H.264 HKD

Click Here for downloading links Arrow S02E09 1080p WEB-DL DD5.1 H.264 HKD

Click Here for downloading links Arrow S02E11 1080p WEB-DL DD5.1 H.264 HKD