Useful link:

IMDB

TVRAGE

TVDB

MediaInfo:
General
Complete name : Bad.Teacher.S01E01.1080p.WEB-DL.DD5.1.H.264.HKD.mkv
Format : Matroska
Format version : Version 4 / Version 2
File size : 843 MiB
Duration : 21mn 28s
Overall bit rate : 5 484 Kbps
Movie name : ripped by CrazyHDSource.com

Video
ID : 1
Format : AVC
Format/Info : Advanced Video Codec
Format profile : High@L4.0
Format settings, CABAC : Yes
Format settings, ReFrames : 4 frames
Codec ID : V_MPEG4/ISO/AVC
Duration : 21mn 28s
Bit rate : 4 991 Kbps
Width : 1 912 pixels
Height : 1 074 pixels
Display aspect ratio : 16:9
Frame rate mode : Constant
Frame rate : 23.976 fps
Color space : YUV
Chroma subsampling : 4:2:0
Bit depth : 8 bits
Scan type : Progressive
Bits/(Pixel*Frame) : 0.101
Stream size : 767 MiB (91%)
Title : ripped by CrazyHDSource.com
Language : English
Default : Yes
Forced : No
Color primaries : BT.709
Transfer characteristics : BT.709
Matrix coefficients : BT.709

Audio
ID : 2
Format : AC-3
Format/Info : Audio Coding 3
Mode extension : CM (complete main)
Format settings, Endianness : Big
Codec ID : A_AC3
Duration : 21mn 28s
Bit rate mode : Constant
Bit rate : 384 Kbps
Channel(s) : 6 channels
Channel positions : Front: L C R, Side: L R, LFE
Sampling rate : 48.0 KHz
Bit depth : 16 bits
Compression mode : Lossy
Stream size : 59.0 MiB (7%)
Language : English
Default : Yes
Forced : No

Text
ID : 3
Format : UTF-8
Codec ID : S_TEXT/UTF8
Codec ID/Info : UTF-8 Plain Text
Language : English
Default : No
Forced : No

Bad.Teacher.S01E01.Pilot.1080p.WEB DL.DD5.1.H.264 HKD.mkv 842.58 MB
Bad.Teacher.S01E02.Daddy.Issues.1080p.WEB DL.DD5.1.H.264 HKD.mkv 868.90 MB
Bad.Teacher.S01E03.Evaluation.Day.1080p.WEB DL.DD5.1.H.264 HKD.mkv 845.03 MB
Bad.Teacher.S01E04.Fieldtrippers.1080p.WEB DL.DD5.1.H.264 HKD.mkv 812.16 MB
Bad.Teacher.S01E05.The.6th.Grade.Lock.In.1080p.WEB DL.DD5.1.H.264 HKD.mkv 858.62 MB
Bad.Teacher.S01E06.Yearbook.1080p.WEB DL.DD5.1.H.264 HKD.mkv 850.53 MB
Bad.Teacher.S01E07.Divorced.Dudes.1080p.WEB DL.DD5.1.H.264 HKD.mkv 855.01 MB
Bad.Teacher.S01E08.Nix.the.Fat.Week.1080p.WEB DL.DD5.1.H.264 ABH.mkv 862.25 MB
Bad.Teacher.S01E09.Life.Science.1080p.WEB DL.DD5.1.H.264 ABH.mkv 838.57 MB
Bad.Teacher.S01E10.Found.Money.1080p.WEB DL.DD5.1.H.264 ABH.mkv 862.34 MB
Bad.Teacher.S01E11.A.Little.Respect.1080p.WEB DL.DD5.1.H.264 ABH.mkv 860.33 MB
Bad.Teacher.S01E12.The.Bottle.1080p.WEB DL.DD5.1.H.264 HKD.mkv 823.07 MB
Bad.Teacher.S01E13.Whats.Old.is.New.1080p.WEB DL.DD5.1.H.264 HKD.mkv 860.33 MB

Screenshot:

Sign up via clicking banner and a file link to creat a premium account.Then Get the access to protected links.

ExtMatrix Download Links

Bad.Teacher.S01E09.Life.Science.1080p.WEB-DL.DD5.1.H.264-ABH.mkv
Bad.Teacher.S01E08.Nix.the.Fat.Week.1080p.WEB-DL.DD5.1.H.264-ABH.mkv
Bad.Teacher.S01E10.Found.Money.1080p.WEB-DL.DD5.1.H.264-ABH.mkv
Bad.Teacher.S01E11.A.Little.Respect.1080p.WEB-DL.DD5.1.H.264-ABH.mkv

Click Here for downloading links Bad Teacher S01 Complete Season 1080p WEB-DL DD5 1 H 264 ABH HKD