Series Info
# of Seasons: 2
Country: US
Air Day: Friday
Air Time: 10:00 PM
First Aired: 2013-01-11
Rating:
Series Status: New Series
Runtime: 60 Minutes
Network: Cinemax
Classification: Scripted
TVDB Rating: 5.3
External Links:

General
Complete name : Banshee.S02E01.1080i.HDTV.DD5.1.MPEG2-NTb.ts
Format : MPEG-TS
File size : 3.64 GiB
Duration : 49mn 37s
Overall bit rate mode : Variable
Overall bit rate : 10.5 Mbps

Video
ID : 17 (0x11)
Menu ID : 1 (0x1)
Format : MPEG Video
Format version : Version 2
Format profile : Main@High
Format settings, BVOP : Yes
Format settings, Matrix : Custom
Format settings, GOP : Variable
Codec ID : 2
Duration : 49mn 37s
Bit rate mode : Variable
Bit rate : 9 593 Kbps
Maximum bit rate : 20.0 Mbps
Width : 1 920 pixels
Height : 1 080 pixels
Display aspect ratio : 16:9
Frame rate : 29.970 fps
Color space : YUV
Chroma subsampling : 4:2:0
Bit depth : 8 bits
Compression mode : Lossy
Bits/(Pixel*Frame) : 0.154
Stream size : 3.33 GiB (91%)

Audio
ID : 20 (0x14)
Menu ID : 1 (0x1)
Format : AC-3
Format/Info : Audio Coding 3
Mode extension : CM (complete main)
Format settings, Endianness : Big
Codec ID : 129
Duration : 49mn 37s
Bit rate mode : Constant
Bit rate : 384 Kbps
Channel(s) : 6 channels
Channel positions : Front: L C R, Side: L R, LFE
Sampling rate : 48.0 KHz
Bit depth : 16 bits
Compression mode : Lossy
Stream size : 136 MiB (4%)

Text #1
ID : 17 (0x11)-CC1
Menu ID : 1 (0x1)
Format : EIA-608
Muxing mode : A/53 / DTVCC Transport
Muxing mode, more info : Muxed in Video #1
Duration : 49mn 37s
Bit rate mode : Constant
Stream size : 0.00 Byte (0%)

Text #2
ID : 17 (0x11)-CC3
Menu ID : 1 (0x1)
Format : EIA-608
Muxing mode : A/53 / DTVCC Transport
Muxing mode, more info : Muxed in Video #1
Duration : 49mn 37s
Bit rate mode : Constant
Stream size : 0.00 Byte (0%)

Text #3
ID : 17 (0x11)-1
Menu ID : 1 (0x1)
Format : EIA-708
Muxing mode : A/53 / DTVCC Transport
Muxing mode, more info : Muxed in Video #1
Duration : 49mn 37s
Bit rate mode : Constant
Stream size : 0.00 Byte (0%)

Text #4
ID : 17 (0x11)-2
Menu ID : 1 (0x1)
Format : EIA-708
Muxing mode : A/53 / DTVCC Transport
Muxing mode, more info : Muxed in Video #1
Duration : 49mn 37s
Bit rate mode : Constant
Stream size : 0.00 Byte (0%)
Screenshot:

Sign up via clicking banner and a file link to creat a premium account.

ExtMatrix Download Links

banshee.s02e01.720p.hdtv.x264-killers.mkv
Banshee.S02E01.1080i.HDTV.DD5.1.MPEG2-NTb.ts