Useful link:

IMDB

TVRAGE

TVDB

MediaInfo:

Includes Bates Motel: After Hours: The Finale (S02-Special)
General
Complete name : Bates.Motel.S02E01.1080p.WEB-DL.DD5.1.H.264.HKD.mkv
Format : Matroska
Format version : Version 4 / Version 2
File size : 1.58 GiB
Duration : 43mn 2s
Overall bit rate : 5 242 Kbps
Movie name : ripped by CrazyHDSource.com

Video
ID : 1
Format : AVC
Format/Info : Advanced Video Codec
Format profile : High@L4.0
Format settings, CABAC : Yes
Format settings, ReFrames : 4 frames
Codec ID : V_MPEG4/ISO/AVC
Duration : 43mn 2s
Bit rate : 4 753 Kbps
Width : 1 920 pixels
Height : 1 080 pixels
Display aspect ratio : 16:9
Frame rate mode : Constant
Frame rate : 23.976 fps
Color space : YUV
Chroma subsampling : 4:2:0
Bit depth : 8 bits
Scan type : Progressive
Bits/(Pixel*Frame) : 0.096
Stream size : 1.43 GiB (91%)
Title : ripped by CrazyHDSource.com
Language : English
Default : Yes
Forced : No
Color primaries : BT.709
Transfer characteristics : BT.709
Matrix coefficients : BT.709

Audio
ID : 2
Format : AC-3
Format/Info : Audio Coding 3
Mode extension : CM (complete main)
Format settings, Endianness : Big
Codec ID : A_AC3
Duration : 43mn 2s
Bit rate mode : Constant
Bit rate : 384 Kbps
Channel(s) : 6 channels
Channel positions : Front: L C R, Side: L R, LFE
Sampling rate : 48.0 KHz
Bit depth : 16 bits
Compression mode : Lossy
Stream size : 118 MiB (7%)
Language : English
Default : Yes
Forced : No

Text
ID : 3
Format : UTF-8
Codec ID : S_TEXT/UTF8
Codec ID/Info : UTF-8 Plain Text
Language : English
Default : No
Forced : No

File Name Size
Bates.Motel.S02E01.720p.WEB DL.DD5.1.H.264 KiNGS.mkv 1.31 GB
Bates.Motel.S02E02.720p.WEB DL.DD5.1.H.264 KiNGS.mkv 1.30 GB
Bates.Motel.S02E03.720p.WEB DL.DD5.1.H.264 KiNGS.mkv 1.33 GB
Bates.Motel.S02E04.720p.WEB DL.DD5.1.H.264 KiNGS.mkv 1.32 GB
Bates.Motel.S02E05.720p.WEB DL.DD5.1.H.264 KiNGS.mkv 1.33 GB
Bates.Motel.S02E06.720p.WEB DL.DD5.1.H.264 KiNGS.mkv 1.29 GB
Bates.Motel.S02E07.720p.WEB DL.DD5.1.H.264 KiNGS.mkv 1.30 GB
Bates.Motel.S02E08.720p.WEB DL.DD5.1.H.264 KiNGS.mkv 1.29 GB
Bates.Motel.S02E09.720p.WEB DL.DD5.1.H.264 KiNGS.mkv 1.28 GB
Bates.Motel.S02E10.720p.WEB DL.DD5.1.H.264 KiNGS.mkv 1.25 GB
File Name Size
Bates.Motel.S02E01.1080p.WEB DL.DD5.1.H.264 HKD.mkv 1.58 GB
Bates.Motel.S02E02.1080p.WEB DL.DD5.1.H.264 HKD.mkv 1.51 GB
Bates.Motel.S02E03.1080p.WEB DL.DD5.1.H.264 HKD.mkv 1.57 GB
Bates.Motel.S02E04.1080p.WEB DL.DD5.1.H.264 HKD.mkv 1.49 GB
Bates.Motel.S02E05.1080p.WEB DL.DD5.1.H.264 KiNGS.mkv 1.58 GB
Bates.Motel.S02E06.1080p.WEB DL.DD5.1.H.264 HKD.mkv 1.56 GB
Bates.Motel.S02E07.1080p.WEB DL.DD5.1.H.264 HKD.mkv 1.49 GB
Bates.Motel.S02E08.1080p.WEB DL.DD5.1.H.264 HKD.mkv 1.51 GB
Bates.Motel.S02E09.1080p.WEB DL.DD5.1.H.264 HKD.mkv 1.51 GB
Bates.Motel.S02E10.1080p.WEB DL.DD5.1.H.264 HKD.mkv 1.52 GB

Screenshot:

Sign up via clicking banner and a file link to creat a premium account.Then Get the access to protected links.

ExtMatrix Download Links

Bate Motel S02 Sneak Peek 1080p WEB-DL AAC2 0 H 264 HKD.mkv
Bates.Motel.S02E01.720p.WEB-DL.DD5.1.H.264-KiNGS.mkv
Bates.Motel.S02E02.720p.WEB-DL.DD5.1.H.264-KiNGS.mkv
Bates.Motel.S02E03.720p.WEB-DL.DD5.1.H.264-KiNGS.mkv
Bates.Motel.S02E04.720p.WEB-DL.DD5.1.H.264-KiNGS.mkv
Bates.Motel.S02E05.720p.WEB-DL.DD5.1.H.264-KiNGS.mkv
Bates.Motel.S02E06.720p.WEB-DL.DD5.1.H.264-KiNGS.mkv
Bates.Motel.S02E07.720p.WEB-DL.DD5.1.H.264-KiNGS.mkv
Bates.Motel.S02E08.720p.WEB-DL.DD5.1.H.264-KiNGS.mkv
Bates.Motel.S02E09.720p.WEB-DL.DD5.1.H.264-KiNGS.mkv
Bates.Motel.S02E10.720p.WEB-DL.DD5.1.H.264-KiNGS.mkv

Click Here for downloading links Bates Motel S02 Complete Season 1080p WEB-DL DD5 1 H 264 KiNGS HKD