Warning: Invalid argument supplied for foreach() in /home/wwwroot/crazyhdsource.com/wp-content/plugins/wpExtMatrixLink/wpExtMatrixLink.php on line 138

Series Info
# of Seasons: 4
Country: CA
Air Day: Monday
Air Time: 9:00 PM
First Aired: 2011-01-17
Rating: TV-14
Series Status: Returning Series
Runtime: 60 Minutes
Network: Syfy
Classification: Scripted
TVDB Rating: 7.6
External Links:

 Being Human (2011– )

TV Series  –    –  tvFantasy | tvHorror
7.2

Your rating:

   -/10
Ratings: 7.2/10 from 7,146 users
Reviews: 60 user | 12 critic

 

Three twenty-somethings share a house and try to live a normal life despite being a ghost, a werewolf, and a vampire.

General
Complete name : Being.Human.US.S04E01.1080p.WEB-DL.DD5.1.H.264.HKD.mkv
Format : Matroska
Format version : Version 4 / Version 2
File size : 1.64 GiB
Duration : 43mn 0s
Overall bit rate : 5 448 Kbps
Movie name : ripped by CrazyHDSource.com

Video
ID : 1
Format : AVC
Format/Info : Advanced Video Codec
Format profile : High@L4.0
Format settings, CABAC : Yes
Format settings, ReFrames : 4 frames
Codec ID : V_MPEG4/ISO/AVC
Duration : 43mn 0s
Bit rate : 4 956 Kbps
Width : 1 920 pixels
Height : 1 080 pixels
Display aspect ratio : 16:9
Frame rate mode : Constant
Frame rate : 23.976 fps
Color space : YUV
Chroma subsampling : 4:2:0
Bit depth : 8 bits
Scan type : Progressive
Bits/(Pixel*Frame) : 0.100
Stream size : 1.49 GiB (91%)
Title : ripped by CrazyHDSource.com
Language : English
Default : Yes
Forced : No
Color primaries : BT.709
Transfer characteristics : BT.709
Matrix coefficients : BT.709

Audio
ID : 2
Format : AC-3
Format/Info : Audio Coding 3
Mode extension : CM (complete main)
Format settings, Endianness : Big
Codec ID : A_AC3
Duration : 43mn 0s
Bit rate mode : Constant
Bit rate : 384 Kbps
Channel(s) : 6 channels
Channel positions : Front: L C R, Side: L R, LFE
Sampling rate : 48.0 KHz
Bit depth : 16 bits
Compression mode : Lossy
Stream size : 118 MiB (7%)
Language : English
Default : Yes
Forced : No

Text
ID : 3
Format : UTF-8
Codec ID : S_TEXT/UTF8
Codec ID/Info : UTF-8 Plain Text
Language : English
Default : No
Forced : No

Screenshot:

Sign up via clicking banner and a file link to creat a premium account.

ExtMatrix Download Links

Click Here for downloading links Being Human US S04E01 1080p pWEB-DL DD5 1 H 264 HKD

Click Here for downloading links Being Human US S04E02 1080p pWEB-DL DD5 1 H 264 HKD