Series Info
External Links:

General
Complete name : Better.Off.Ted.S01E02.Heroes.1080p.WEB-DL.DD5.1.H.264-BTN.mkv
Format : Matroska
Format version : Version 4 / Version 2
File size : 838 MiB
Duration : 20mn 59s
Overall bit rate : 5 581 Kbps

Video
ID : 1
Format : AVC
Format/Info : Advanced Video Codec
Format profile : High@L4.0
Format settings, CABAC : Yes
Format settings, ReFrames : 4 frames
Codec ID : V_MPEG4/ISO/AVC
Duration : 20mn 59s
Bit rate : 5 086 Kbps
Width : 1 916 pixels
Height : 1 076 pixels
Display aspect ratio : 16:9
Frame rate mode : Constant
Frame rate : 23.976 fps
Color space : YUV
Chroma subsampling : 4:2:0
Bit depth : 8 bits
Scan type : Progressive
Bits/(Pixel*Frame) : 0.103
Stream size : 764 MiB (91%)
Language : English
Default : Yes
Forced : No
Color primaries : BT.709
Transfer characteristics : BT.709
Matrix coefficients : BT.709

Audio
ID : 2
Format : AC-3
Format/Info : Audio Coding 3
Mode extension : CM (complete main)
Format settings, Endianness : Big
Codec ID : A_AC3
Duration : 20mn 59s
Bit rate mode : Constant
Bit rate : 384 Kbps
Channel(s) : 6 channels
Channel positions : Front: L C R, Side: L R, LFE
Sampling rate : 48.0 KHz
Bit depth : 16 bits
Compression mode : Lossy
Stream size : 57.7 MiB (7%)
Language : English
Default : Yes
Forced : No

Better.Off.Ted.S01E01.Pilot.1080p.WEB DL.DD5.1.H.264 BTN.mkv 850.64 MB
Better.Off.Ted.S01E02.Heroes.1080p.WEB DL.DD5.1.H.264 BTN.mkv 838.00 MB
Better.Off.Ted.S01E03.Through.Rose Colored.HAZMAT.Suits.1080p.WEB DL.DD5.1.H.264 BTN.mkv 840.36 MB
Better.Off.Ted.S01E04.Racial.Sensitivity.1080p.WEB DL.DD5.1.H.264 BTN.mkv 853.75 MB
Better.Off.Ted.S01E05.Win.Some,.Dose.Some.1080p.WEB DL.DD5.1.H.264 BTN.mkv 840.76 MB
Better.Off.Ted.S01E06.Goodbye,.Mr.Chips.1080p.WEB DL.DD5.1.H.264 BTN.mkv 810.48 MB
Better.Off.Ted.S01E07.Get.Happy.1080p.WEB DL.DD5.1.H.264 BTN.mkv 858.79 MB
Better.Off.Ted.S01E08.You.Are.the.Boss.of.Me.1080p.WEB DL.DD5.1.H.264 BTN.mkv 887.70 MB
Better.Off.Ted.S01E09.Bioshuffle.1080p.WEB DL.DD5.1.H.264 BTN.mkv 839.61 MB
Better.Off.Ted.S01E10.Trust.and.Consequences.1080p.WEB DL.DD5.1.H.264 BTN.mkv 851.13 MB
Better.Off.Ted.S01E11.Father,.Can.You.Hair.Me.1080p.WEB DL.DD5.1.H.264 BTN.mkv 846.87 MB
Better.Off.Ted.S01E12.Jabberwocky.1080p.WEB DL.DD5.1.H.264 BTN.mkv 809.36 MB
Better.Off.Ted.S01E13.Secrets.and.Lives.1080p.WEB DL.DD5.1.H.264 BTN.mkv 862.54 MB

Screenshot:

Sign up via clicking banner and a file link to creat a premium account.

ExtMatrix Download Links

Better.Off.Ted.S01E01.Pilot.1080p.WEB-DL.DD5.1.H.264-BTN.mkv

Click Here for downloading links Better Off Ted S01 Complete Season 1080p WEB-DL DD5.1 H.264