Series Info
External Links:

General
Complete name : Better.Off.Ted.S02E10.Lust.in.Translation.1080p.WEB-DL.DD5.1.H.264-BTN.mkv
Format : Matroska
Format version : Version 4 / Version 2
File size : 839 MiB
Duration : 21mn 30s
Overall bit rate : 5 453 Kbps

Video
ID : 1
Format : AVC
Format/Info : Advanced Video Codec
Format profile : High@L4.0
Format settings, CABAC : Yes
Format settings, ReFrames : 4 frames
Codec ID : V_MPEG4/ISO/AVC
Duration : 21mn 30s
Bit rate : 4 961 Kbps
Width : 1 920 pixels
Height : 1 080 pixels
Display aspect ratio : 16:9
Frame rate mode : Constant
Frame rate : 23.976 fps
Color space : YUV
Chroma subsampling : 4:2:0
Bit depth : 8 bits
Scan type : Progressive
Bits/(Pixel*Frame) : 0.100
Stream size : 763 MiB (91%)
Language : English
Default : Yes
Forced : No
Color primaries : BT.709
Transfer characteristics : BT.709
Matrix coefficients : BT.709

Audio
ID : 2
Format : AC-3
Format/Info : Audio Coding 3
Mode extension : CM (complete main)
Format settings, Endianness : Big
Codec ID : A_AC3
Duration : 21mn 30s
Bit rate mode : Constant
Bit rate : 384 Kbps
Channel(s) : 6 channels
Channel positions : Front: L C R, Side: L R, LFE
Sampling rate : 48.0 KHz
Bit depth : 16 bits
Compression mode : Lossy
Stream size : 59.1 MiB (7%)
Language : English
Default : Yes
Forced : No

Better.Off.Ted.S02E01.Love.Blurts.1080p.WEB DL.DD5.1.H.264 BTN.mkv 851.66 MB
Better.Off.Ted.S02E02.The.Lawyer,.The.Lemur.and.the.Little.Listener.1080p.WEB DL.DD5.1.H.264 BTN.mkv 845.22 MB
Better.Off.Ted.S02E03.Battle.of.the.Bulbs.1080p.WEB DL.DD5.1.H.264 BTN.mkv 850.81 MB
Better.Off.Ted.S02E04.It’s.Nothing.Business,.It’s.Just.Personal.1080p.WEB DL.DD5.1.H.264 BTN.mkv 842.88 MB
Better.Off.Ted.S02E05.The.Great.Repression.1080p.WEB DL.DD5.1.H.264 BTN.mkv 855.84 MB
Better.Off.Ted.S02E06.Beating.a.Dead.Workforce.1080p.WEB DL.DD5.1.H.264 BTN.mkv 897.80 MB
Better.Off.Ted.S02E07.Change.We.Can’t.Believe.In.1080p.WEB DL.DD5.1.H.264 BTN.mkv 834.81 MB
Better.Off.Ted.S02E08.The.Impertence.of.Communicationizing.1080p.WEB DL.DD5.1.H.264 BTN.mkv 851.79 MB
Better.Off.Ted.S02E09.The.Long.and.Winding.High.Road.1080p.WEB DL.DD5.1.H.264 BTN.mkv 847.29 MB
Better.Off.Ted.S02E10.Lust.in.Translation.1080p.WEB DL.DD5.1.H.264 BTN.mkv 839.12 MB
Better.Off.Ted.S02E11.Mess.of.a.Salesman.1080p.WEB DL.DD5.1.H.264 BTN.mkv 876.25 MB
Better.Off.Ted.S02E12.It’s.My.Party.and.I’ll.Lie.If.I.Want.To.1080p.WEB DL.DD5.1.H.264 BTN.mkv 852.49 MB
Better.Off.Ted.S02E13.Swag.the.Dog.1080p.WEB DL.DD5.1.H.264 BTN.mkv 896.38 MB

Screenshot:

Sign up via clicking banner and a file link to creat a premium account.

ExtMatrix Download Links

Click Here for downloading links Better Off Ted S02 Complete Season 1080p WEB-DL DD5.1 H.264