Useful link:

MediaInfo:
General
Complete name : Big.Hero.6.2014.1080p.WEB-DL.DD5.1.H.264.HKD.mkv
Format : Matroska
Format version : Version 4 / Version 2
File size : 3.04 GiB
Duration : 1h 41mn
Overall bit rate : 4 278 Kbps
Movie name : ripped by CrazyHDSource.com

Video
ID : 1
Format : AVC
Format/Info : Advanced Video Codec
Format profile : High@L4.0
Format settings, CABAC : Yes
Format settings, ReFrames : 5 frames
Codec ID : V_MPEG4/ISO/AVC
Duration : 1h 41mn
Bit rate : 3 809 Kbps
Width : 1 916 pixels
Height : 800 pixels
Display aspect ratio : 2.40:1
Frame rate mode : Constant
Frame rate : 23.976 fps
Color space : YUV
Chroma subsampling : 4:2:0
Bit depth : 8 bits
Scan type : Progressive
Bits/(Pixel*Frame) : 0.104
Stream size : 2.71 GiB (89%)
Title : ripped by CrazyHDSource.com
Language : English
Default : Yes
Forced : No
Color primaries : BT.709
Transfer characteristics : BT.709
Matrix coefficients : BT.709
Color range : Limited

Audio
ID : 2
Format : AC-3
Format/Info : Audio Coding 3
Mode extension : CM (complete main)
Format settings, Endianness : Big
Codec ID : A_AC3
Duration : 1h 41mn
Bit rate mode : Constant
Bit rate : 384 Kbps
Channel(s) : 6 channels
Channel positions : Front: L C R, Side: L R, LFE
Sampling rate : 48.0 KHz
Bit depth : 16 bits
Compression mode : Lossy
Stream size : 280 MiB (9%)
Language : English
Default : Yes
Forced : No

Text
ID : 3
Format : UTF-8
Codec ID : S_TEXT/UTF8
Codec ID/Info : UTF-8 Plain Text
Language : English
Default : No
Forced : No

Menu
00:00:00.000 : en:Hustle
00:07:16.000 : en:Nerd School
00:14:38.000 : en:Showcase
00:21:50.000 : en:Tragedy
00:24:33.000 : en:A New Friend
00:29:35.000 : en:Being Helpful
00:36:59.000 : en:Upgrade
00:44:19.000 : en:The Chase
00:50:50.000 : en:Fred’s House
00:54:33.000 : en:Training
01:00:45.000 : en:Secret Lair
01:07:13.000 : en:Big Reveal
01:11:55.000 : en:Putting It All Together
01:16:27.000 : en:Saves The Day!
01:24:45.000 : en:The Portal
01:31:56.000 : en:End Credits

Screenshot:

Sign up via clicking banner and a file link to creat a premium account.Then Get the access to protected links.

ExtMatrix Download Links

Big.Hero.6.2014.1080p.WEB-DL.DD5.1.H.264.HKD.part4.rar
Big.Hero.6.2014.1080p.WEB-DL.DD5.1.H.264.HKD.part3.rar
Big.Hero.6.2014.1080p.WEB-DL.DD5.1.H.264.HKD.part1.rar
Big.Hero.6.2014.1080p.WEB-DL.DD5.1.H.264.HKD.part2.rar