Series Info
# of Seasons: 4
Country: US
Air Day: Sunday
Air Time: 8:30 PM
First Aired: 2011-01-09
Rating: TV-PG
Series Status: Returning Series
Runtime: 30 Minutes
Network: FOX
Classification: Animation
TVDB Rating: 7.3
External Links:

Bob’s Burgers (2011– )

TV Series – 30 min – tvAnimation | tvComedy
7.6

Your rating:

-/10
Ratings: 7.6/10 from 4,215 users
Reviews: 58 user | 11 critic

 

Bob’s Burgers centers on the Belcher family (consists of Bob, Linda, Tina, Gene and Louise) who own a hamburger restaurant…
General
Complete name : Bobs.Burgers.S01E08.720p.WEB-DL.DD5.1.H.264-Chotab.mkv
Format : Matroska
Format version : Version 2
File size : 464 MiB
Duration : 21mn 42s
Overall bit rate : 2 987 Kbps

Video
ID : 1
Format : AVC
Format/Info : Advanced Video Codec
Format profile : High@L3.1
Format settings, CABAC : No
Format settings, ReFrames : 2 frames
Format settings, GOP : M=2, N=69
Codec ID : V_MPEG4/ISO/AVC
Duration : 21mn 42s
Bit rate : 2 543 Kbps
Width : 1 280 pixels
Height : 720 pixels
Display aspect ratio : 16:9
Frame rate mode : Constant
Frame rate : 23.976 fps
Color space : YUV
Chroma subsampling : 4:2:0
Bit depth : 8 bits
Scan type : Progressive
Bits/(Pixel*Frame) : 0.115
Stream size : 395 MiB (85%)
Language : English
Default : Yes
Forced : No
Color primaries : BT.709
Transfer characteristics : BT.709
Matrix coefficients : BT.709

Audio
ID : 2
Format : AC-3
Format/Info : Audio Coding 3
Mode extension : CM (complete main)
Format settings, Endianness : Big
Codec ID : A_AC3
Duration : 21mn 42s
Bit rate mode : Constant
Bit rate : 384 Kbps
Channel(s) : 6 channels
Channel positions : Front: L C R, Side: L R, LFE
Sampling rate : 48.0 KHz
Bit depth : 16 bits
Compression mode : Lossy
Delay relative to video : 3ms
Stream size : 59.6 MiB (13%)
Language : English
Default : Yes
Forced : No

Bobs.Burgers.S01.720p.WEB-DL.DD5.1.H.264 CtrlHD Chotab

Bobs.Burgers.S01E01.Human.Flesh.720p.iTunes.DD5.1.H.264 CtrlHD.mkv 460.32 MB
Bobs.Burgers.S01E02.720p.WEB DL.DD5.1.H.264 Chotab.mkv 458.02 MB
Bobs.Burgers.S01E03.720p.WEB DL.DD5.1.H.264 Chotab.mkv 526.65 MB
Bobs.Burgers.S01E04.720p.WEB DL.DD5.1.H.264 Chotab.mkv 536.49 MB
Bobs.Burgers.S01E05.720p.WEB DL.DD5.1.H.264 Chotab.mkv 535.08 MB
Bobs.Burgers.S01E06.720p.WEB DL.DD5.1.H.264 Chotab.mkv 531.21 MB
Bobs.Burgers.S01E07.720p.WEB DL.DD5.1.H.264 Chotab.mkv 445.49 MB
Bobs.Burgers.S01E08.720p.WEB DL.DD5.1.H.264 Chotab.mkv 463.87 MB
Bobs.Burgers.S01E09.720p.WEB DL.DD5.1.H.264 Chotab.mkv 550.01 MB
Bobs.Burgers.S01E10.720p.WEB DL.DD5.1.H.264 Chotab.mkv 539.96 MB
Bobs.Burgers.S01E11.720p.WEB DL.DD5.1.H.264.mkv 573.61 MB
Bobs.Burgers.S01E12.720p.WEB DL.DD5.1.H.264.mkv 651.43 MB
Bobs.Burgers.S01E13.720p.WEB DL.DD5.1.H.264.mkv 510.82 MB

Bobs.Burgers.S02.720p.WEB-DL.DD5.1.H264-NTb   

Bobs.Burgers.S02E01.The.Belchies.720p.WEB DL.DD5.1.H264 NTb.mkv 515.98 MB
Bobs.Burgers.S02E02.Bob.Day.Afternoon.720p.WEB DL.DD5.1.H264 NTb.mkv 535.87 MB
Bobs.Burgers.S02E03.Synchronized.Swimming.720p.WEB DL.DD5.1.H264 NTb.mkv 534.79 MB
Bobs.Burgers.S02E04.Burgerboss.720p.WEB DL.DD5.1.H264 NTb.mkv 583.17 MB
Bobs.Burgers.S02E05.Food.Truckin.720p.WEB DL.DD5.1.H264 NTb.mkv 584.70 MB
Bobs.Burgers.S02E06.Dr.Yap.720p.WEB DL.DD5.1.H264 NTb.mkv 573.84 MB
Bobs.Burgers.S02E07.Moody.Foodie.720p.WEB DL.DD5.1.H264 NTb.mkv 528.62 MB
Bobs.Burgers.S02E08.Bad.Tina.720p.WEB DL.DD5.1.H264 NTb.mkv 543.54 MB
Bobs.Burgers.S02E09.Beefsquatch.720p.WEB DL.DD5.1.H264 NTb.mkv 468.59 MB
Screenshot:

Sign up via clicking banner and a file link to creat a premium account.Then Get the access to protected links.

ExtMatrix Download Links

Bobs.Burgers.S01E01.Human.Flesh.720p.iTunes.DD5.1.H.264-CtrlHD.mkv
Bobs.Burgers.S01E02.720p.WEB-DL.DD5.1.H.264-Chotab.mkv
Bobs.Burgers.S01E03.720p.WEB-DL.DD5.1.H.264-Chotab.mkv
Bobs.Burgers.S01E04.720p.WEB-DL.DD5.1.H.264-Chotab.mkv

Click Here for downloading links Bobs Burgers S01 S02 720p WEB-DL DD5.1 H.264 Chotab NTb