Series Info
# of Seasons: 4
Country: US
Air Day: Sunday
Air Time: 8:30 PM
First Aired: 2011-01-09
Rating: TV-PG
Series Status: Returning Series
Runtime: 30 Minutes
Network: FOX
Classification: Animation
TVDB Rating: 7.3
External Links:

Bob’s Burgers (2011– )

TV Series – 30 min – tvAnimation | tvComedy
7.6

Your rating:

-/10
Ratings: 7.6/10 from 4,215 users
Reviews: 58 user | 11 critic

 

Bob’s Burgers centers on the Belcher family (consists of Bob, Linda, Tina, Gene and Louise) who own a hamburger restaurant…

 

General
Complete name : Bobs.Burgers.S04E01.1080p.WEB-DL.DD5.1.H.264.HKD.mkv
Format : Matroska
Format version : Version 4 / Version 2
File size : 886 MiB
Duration : 23mn 19s
Overall bit rate : 5 309 Kbps
Movie name : ripped by CrazyHDSource.com

Video
ID : 1
Format : AVC
Format/Info : Advanced Video Codec
Format profile : High@L4.0
Format settings, CABAC : Yes
Format settings, ReFrames : 4 frames
Codec ID : V_MPEG4/ISO/AVC
Duration : 23mn 19s
Bit rate : 4 820 Kbps
Width : 1 912 pixels
Height : 1 072 pixels
Display aspect ratio : 16:9
Frame rate mode : Constant
Frame rate : 23.976 fps
Color space : YUV
Chroma subsampling : 4:2:0
Bit depth : 8 bits
Scan type : Progressive
Bits/(Pixel*Frame) : 0.098
Stream size : 804 MiB (91%)
Title : ripped by CrazyHDSource.com
Language : English
Default : Yes
Forced : No
Color primaries : BT.709
Transfer characteristics : BT.709
Matrix coefficients : BT.709

Audio
ID : 2
Format : AC-3
Format/Info : Audio Coding 3
Mode extension : CM (complete main)
Format settings, Endianness : Big
Codec ID : A_AC3
Duration : 23mn 19s
Bit rate mode : Constant
Bit rate : 384 Kbps
Channel(s) : 6 channels
Channel positions : Front: L C R, Side: L R, LFE
Sampling rate : 48.0 KHz
Bit depth : 16 bits
Compression mode : Lossy
Stream size : 64.1 MiB (7%)
Language : English
Default : Yes
Forced : No

Text
ID : 3
Format : UTF-8
Codec ID : S_TEXT/UTF8
Codec ID/Info : UTF-8 Plain Text
Language : English
Default : No
Forced : No

Bobs.Burgers.S04E01.A.River.Runs.Through.Bob.1080p.WEB DL.DD5.1.H264 HKD.mkv 825.48 MB
Bobs.Burgers.S04E02.Fort.Night.1080p.WEB DL.DD5.1.H264 iT00NZ.mkv 847.58 MB
Bobs.Burgers.S04E03.Seaplane.1080p.WEB DL.DD5.1.H264 iT00NZ.mkv 812.67 MB
Bobs.Burgers.S04E04.My.Big.Fat.Greek.Bob.1080p.WEB DL.DD5.1.H264 HKD.mkv 820.15 MB
Bobs.Burgers.S04E05.Turkey.in.a.Can.1080p.WEB DL.DD5.1.H264 iT00NZ.mkv 732.91 MB
Bobs.Burgers.S04E06.Purple.Rain Union.1080p.WEB DL.DD5.1.H264 iT00NZ.mkv 760.88 MB
Bobs.Burgers.S04E07.Bob.and.Deliver.1080p.WEB DL.DD5.1.H264 iT00NZ.mkv 777.75 MB
Bobs.Burgers.S04E08.Christmas.in.the.Car.1080p.WEB DL.DD5.1.H264 HKD.mkv 752.19 MB
Bobs.Burgers.S04E09.Slumber.Party.1080p.WEB DL.DD5.1.H264 HKD.mkv 737.62 MB
Bobs.Burgers.S04E10.Presto.Tina O.1080p.WEB DL.DD5.1.H264 HKD.mkv 729.13 MB
Bobs.Burgers.S04E11.Easy.Com Mercial.Easy.Go Mercial.1080p.WEB DL.DD5.1.H.264 HKD.mkv 760.44 MB
Bobs.Burgers.S04E12.The.Frond.Files.1080p.WEB DL.DD5.1.H.264 HKD.mkv 742.02 MB
Bobs.Burgers.S04E13.Mazel.Tina.1080p.WEB DL.DD5.1.H.264 iT00NZ.mkv 743.83 MB
Bobs.Burgers.S04E14.Uncle.Teddy.1080p.WEB DL.DD5.1.H.264 HKD.mkv 775.43 MB
Bobs.Burgers.S04E15.The.Kids.Rob.a.Train.1080p.WEB DL.DD5.1.H.264 HKD.mkv 751.87 MB
Bobs.Burgers.S04E16.I.Get.Psy Chic.Out.of.You.1080p.WEB DL.DD5.1.H.264 HKD.mkv 749.15 MB
Bobs.Burgers.S04E17.Equestranauts.1080p.WEB DL.DD5.1.H.264 HKD.mkv 745.01 MB
Bobs.Burgers.S04E18.Ambergris.1080p.WEB DL.DD5.1.H.264 iT00NZ.mkv 676.87 MB
Bobs.Burgers.S04E19.The.Kids.Run.Away.1080p.WEB DL.DD5.1.H.264 HKD.mkv 736.04 MB
Bobs.Burgers.S04E20.Gene.It.On.1080p.WEB DL.DD5.1.H.264 HKD.mkv 690.69 MB
Bobs.Burgers.S04E21.Wharf.Horse.1080p.WEB DL.DD5.1.H.264 HKD.mkv 732.57 MB
Bobs.Burgers.S04E22.World.Wharf.II.The.Wharfening.1080p.WEB DL.DD5.1.H.264 HKD.mkv 792.77 MB

Bobs.Burgers.Season.Premiere.Sneak.Peek.1080p.WEB-DL.AAC2.0.H.264-HKD.mkv 57.04 MB
Screenshot:

Sign up via clicking banner and a file link to creat a premium account.Then Get the access to protected links.

ExtMatrix Download Links

Click Here for downloading links Bobs Burgers S04 Complete Season 1080p WEB-DL DD5 1 H 264 HKD iT00NZ