Series Info
# of Seasons: 4
Country: US
Air Day: Sunday
Air Time: 8:30 PM
First Aired: 2011-01-09
Rating: TV-PG
Series Status: Returning Series
Runtime: 30 Minutes
Network: FOX
Classification: Animation
TVDB Rating: 7.3
External Links:

Bob’s Burgers (2011– )

TV Series – 30 min – tvAnimation | tvComedy
7.6

Your rating:

-/10
Ratings: 7.6/10 from 4,215 users
Reviews: 58 user | 11 critic

 

Bob’s Burgers centers on the Belcher family (consists of Bob, Linda, Tina, Gene and Louise) who own a hamburger restaurant…

 

General
Complete name : Bobs.Burgers.S04E01.1080p.WEB-DL.DD5.1.H.264.HKD.mkv
Format : Matroska
Format version : Version 4 / Version 2
File size : 886 MiB
Duration : 23mn 19s
Overall bit rate : 5 309 Kbps
Movie name : ripped by CrazyHDSource.com

Video
ID : 1
Format : AVC
Format/Info : Advanced Video Codec
Format profile : High@L4.0
Format settings, CABAC : Yes
Format settings, ReFrames : 4 frames
Codec ID : V_MPEG4/ISO/AVC
Duration : 23mn 19s
Bit rate : 4 820 Kbps
Width : 1 912 pixels
Height : 1 072 pixels
Display aspect ratio : 16:9
Frame rate mode : Constant
Frame rate : 23.976 fps
Color space : YUV
Chroma subsampling : 4:2:0
Bit depth : 8 bits
Scan type : Progressive
Bits/(Pixel*Frame) : 0.098
Stream size : 804 MiB (91%)
Title : ripped by CrazyHDSource.com
Language : English
Default : Yes
Forced : No
Color primaries : BT.709
Transfer characteristics : BT.709
Matrix coefficients : BT.709

Audio
ID : 2
Format : AC-3
Format/Info : Audio Coding 3
Mode extension : CM (complete main)
Format settings, Endianness : Big
Codec ID : A_AC3
Duration : 23mn 19s
Bit rate mode : Constant
Bit rate : 384 Kbps
Channel(s) : 6 channels
Channel positions : Front: L C R, Side: L R, LFE
Sampling rate : 48.0 KHz
Bit depth : 16 bits
Compression mode : Lossy
Stream size : 64.1 MiB (7%)
Language : English
Default : Yes
Forced : No

Text
ID : 3
Format : UTF-8
Codec ID : S_TEXT/UTF8
Codec ID/Info : UTF-8 Plain Text
Language : English
Default : No
Forced : No

Bobs.Burgers.Season.Premiere.Sneak.Peek.1080p.WEB-DL.AAC2.0.H.264-HKD.mkv 57.04 MB
Screenshot:

Sign up via clicking banner and a file link to creat a premium account.Then Get the access to protected links.

ExtMatrix Download Links

Bobs.Burgers.S04E02.Fort.Night.1080p.WEB-DL.DD5.1.H264-iT00NZ.mkv
Bobs.Burgers.S04E03.Seaplane.1080p.WEB-DL.DD5.1.H264-iT00NZ.mkv
Bobs.Burgers.S04E05.Turkey.in.a.Can.1080p.WEB-DL.DD5.1.H264-iT00NZ.mkv
Bobs.Burgers.S04E06.Purple.Rain-Union.1080p.WEB-DL.DD5.1.H264-iT00NZ.mkv
Bobs.Burgers.S04E07.Bob.and.Deliver.1080p.WEB-DL.DD5.1.H264-iT00NZ.mkv
Bobs.Burgers.S04E08.Christmas.in.the.Car.1080p.WEB-DL.DD5.1.H264-iT00NZ.mkv
Bobs.Burgers.S04E13.Mazel.Tina.1080p.WEB-DL.DD5.1.H.264-iT00NZ.mkv

Click Here for downloading links Bobs Burgers S04E01 1080p pWEB-DL DD5 1 H 264 HKD

Click Here for downloading links Bobs Burgers S04E04 1080p pWEB-DL DD5 1 H 264 HKD

Click Here for downloading links Bobs Burgers S04E09 p1080p WEB-DL DD5 1 H 264 HKD

Click Here for downloading links Bobs Burgers S04E10 p1080p WEB-DL DD5 1 H 264 HKD

Click Here for downloading links Bobs Burgers S04E11 p1080p WEB-DL DD5 1 H 264 HKD

Click Here for downloading links Bobs Burgers S04E12 p1080p WEB-DL DD5 1 H 264 HKD

Click Here for downloading links Bobs Burgers S04E14 p1080p WEB-DL DD5 1 H 264 HKD

Click Here for downloading links Bobs Burgers S04E15 p1080p WEB-DL DD5 1 H 264 HKD

Click Here for downloading links Bobs Burgers S04E16 p1080p WEB-DL DD5 1 H 264 HKD