Useful link:

MediaInfo:
General
Complete name : Breathe.In.2013.720p.BluRay.DTS.x264-PublicHD.mkv
Format : Matroska
Format version : Version 2
File size : 4.10 GiB
Duration : 1h 37mn
Overall bit rate : 6 040 Kbps

Video
ID : 1
Format : AVC
Format/Info : Advanced Video Codec
Format profile : High@L4.1
Format settings, CABAC : Yes
Format settings, ReFrames : 5 frames
Codec ID : V_MPEG4/ISO/AVC
Duration : 1h 37mn
Bit rate : 4 411 Kbps
Width : 1 280 pixels
Height : 538 pixels
Display aspect ratio : 2.40:1
Frame rate mode : Constant
Frame rate : 23.976 fps
Color space : YUV
Chroma subsampling : 4:2:0
Bit depth : 8 bits
Scan type : Progressive
Bits/(Pixel*Frame) : 0.267
Stream size : 3.00 GiB (73%)
Language : English
Default : Yes
Forced : No

Audio
ID : 2
Format : DTS
Format/Info : Digital Theater Systems
Mode : 16
Format settings, Endianness : Big
Codec ID : A_DTS
Duration : 1h 37mn
Bit rate mode : Constant
Bit rate : 1 509 Kbps
Channel(s) : 6 channels
Channel positions : Front: L C R, Side: L R, LFE
Sampling rate : 48.0 KHz
Bit depth : 24 bits
Compression mode : Lossy
Stream size : 1.02 GiB (25%)
Language : English
Default : Yes
Forced : No

Menu
00:00:00.000 : en:00:00:00.000
00:08:00.188 : en:00:08:00.188
00:19:39.762 : en:00:19:39.762
00:29:30.310 : en:00:29:30.310
00:39:05.468 : en:00:39:05.468
00:47:19.336 : en:00:47:19.336
00:52:10.210 : en:00:52:10.210
01:02:17.275 : en:01:02:17.275
01:12:28.094 : en:01:12:28.094
01:20:47.259 : en:01:20:47.259
01:27:21.403 : en:01:27:21.403
01:31:45.917 : en:01:31:45.917

Screenshot:

Sign up via clicking banner and a file link to creat a premium account.Then Get the access to protected links.

ExtMatrix Download Links

Breathe.In.2013.720p.BluRay.DTS.x264-PublicHD.mkv