External Links:

General
Complete name : by_any_means.1×01.720p_hdtv_x264-fov.mkv
Format : Matroska
Format version : Version 2
File size : 1.17 GiB
Duration : 57mn 46s
Overall bit rate : 2 911 Kbps

Video
ID : 1
Format : AVC
Format/Info : Advanced Video Codec
Format profile : High@L4.1
Format settings, CABAC : Yes
Format settings, ReFrames : 5 frames
Codec ID : V_MPEG4/ISO/AVC
Duration : 57mn 46s
Bit rate : 2 661 Kbps
Width : 1 280 pixels
Height : 720 pixels
Display aspect ratio : 16:9
Frame rate mode : Constant
Frame rate : 25.000 fps
Color space : YUV
Chroma subsampling : 4:2:0
Bit depth : 8 bits
Scan type : Progressive
Bits/(Pixel*Frame) : 0.115
Stream size : 1.07 GiB (91%)
Writing library : x264 core 135 r2345 f0c1c53
Encoding settings : cabac=1 / ref=5 / deblock=1:0:0 / analyse=0x3:0x113 / me=umh / subme=8 / psy=1 /

Audio
ID : 2
Format : AC-3
Format/Info : Audio Coding 3
Mode extension : CM (complete main)
Format settings, Endianness : Big
Codec ID : A_AC3
Duration : 57mn 46s
Bit rate mode : Constant
Bit rate : 192 Kbps
Channel(s) : 2 channels
Channel positions : Front: L R
Sampling rate : 48.0 KHz
Bit depth : 16 bits
Compression mode : Lossy
Stream size : 79.3 MiB (7%)
Default : Yes
Forced : No

Screenshot:

Sign up via clicking banner and a file link to creat a premium account.Then Get the access to protected links.

ExtMatrix Download Links

By Any Means S01E01 1080i HDTV DD2.0 H.264-lulz.ts
By.Any.Means.S01E01.720p.HDTV.x264-lulz.mkv
by_any_means.1x02.720p_hdtv_x264-fov.mkv
By Any Means S01E02 1080i HDTV DD2.0 H.264-lulz.ts
by_any_means.1x03.720p_hdtv_x264-fov.mkv
By Any Means S01E03 1080i HDTV DD2.0 H.264-lulz.ts
by_any_means.1x04.720p_hdtv_x264-fov.mkv
By Any Means S01E04 1080i HDTV DD2.0 H.264-lulz.ts
By Any Means S01E05 1080i HDTV DD2.0 H.264-lulz.ts
by_any_means.1x06.720p_hdtv_x264-fov.mkv
By Any Means S01E06 1080i HDTV DD2.0 H.264-lulz.ts