External Links:

General
Complete name : Call.The.Midwife.S03E01.1080p.HDTV.AC3.2.0.h264-BTN.mkv
Format : Matroska
Format version : Version 4 / Version 2
File size : 1.77 GiB
Duration : 57mn 54s
Overall bit rate : 4 379 Kbps

Video
ID : 1
Format : AVC
Format/Info : Advanced Video Codec
Format profile : High@L4.0
Format settings, CABAC : Yes
Format settings, ReFrames : 4 frames
Codec ID : V_MPEG4/ISO/AVC
Duration : 57mn 54s
Bit rate : 4 164 Kbps
Width : 1 920 pixels
Height : 1 080 pixels
Display aspect ratio : 16:9
Frame rate mode : Constant
Frame rate : 25.000 fps
Color space : YUV
Chroma subsampling : 4:2:0
Bit depth : 8 bits
Scan type : Progressive
Bits/(Pixel*Frame) : 0.080
Stream size : 1.68 GiB (95%)
Title : PID 6601
Default : No
Forced : No
Color primaries : BT.709
Transfer characteristics : BT.709
Matrix coefficients : BT.709

Audio
ID : 2
Format : AC-3
Format/Info : Audio Coding 3
Mode extension : CM (complete main)
Format settings, Endianness : Big
Codec ID : A_AC3
Duration : 57mn 54s
Bit rate mode : Constant
Bit rate : 128 Kbps
Channel(s) : 2 channels
Channel positions : Front: L R
Sampling rate : 48.0 KHz
Bit depth : 16 bits
Compression mode : Lossy
Stream size : 53.0 MiB (3%)
Default : Yes
Forced : No

Screenshot:

Sign up via clicking banner and a file link to creat a premium account.Then Get the access to protected links.

ExtMatrix Download Links

Call.The.Midwife.S03E01.1080p.HDTV.AC3.2.0.h264-BTN.mkv