Useful link:

MediaInfo:

Video
Format : AVC
Duration : 1h 37mn
Bit rate mode : Variable
Bit rate : 13.8 Mbps
Maximum bit rate : 15.0 Mbps
Width : 1 920 pixels
Height : 1 080 pixels
Display aspect ratio : 16:9
Frame rate mode : Constant
Frame rate : 25.000 fps
Stream size : 9.38 GiB (95%)
Title : MPEG-4 AVC Video / 14017 kbps / 1080p / 25.000 fps / 16:9 / High@L4.0 (Amazon Video)
Audio
Format : AC-3
Format/Info : Audio Coding 3
Mode extension : CM (complete main)
Format settings, Endianness : Big
Codec ID : A_AC3
Duration : 1h 37mn
Bit rate mode : Constant
Bit rate : 448 Kbps
Channel count : 6 channels
Channel positions : Front: L C R, Side: L R, LFE
Sampling rate : 48.0 KHz
Bit depth : 16 bits
Compression mode : Lossy
Stream size : 313 MiB (3%)
Title : Dolby Digital Audio / 5.1 / 48 kHz / 448 kbps / 16-bit
Language : English
Default : No
Forced : No

Text
Codec ID/Info : UTF-8 Plain Text
Title : SRT
Language : English, Hebrew, Greek, German, French, Italian, Arabic, Bulgarian, Croatian, Czech, Danish, Dutch, Finnish, Hungarian, Icelandic, Norwegian, Russian, Polish
Default : No
Forced : No
Menu
00:00:00.000 : en:Opening Credits
00:02:02.000 : en:Homecoming
00:06:59.160 : en:A Cool New World
00:09:38.120 : en:Not Your Ordinary Doodle
00:18:52.040 : en:Freedom For Jack Deebs
00:22:37.720 : en:No Dream
00:30:29.280 : en:A Thing For Noids
00:39:18.360 : en:Invitation Only
00:45:37.640 : en:Man Is In The Bedroom
00:50:22.240 : en:Biomorphic Menace
00:58:12.160 : en:What Holli Would Want
01:07:20.000 : en:Vegas Vinie Unmasked
01:17:46.080 : en:The Spike Of Power
01:30:15.960 : en:A Doodle Himself
01:33:29.845 : en:End Credits

Screenshot:




Sign up via clicking banner and a file link to creat a premium account.Then Get the access to protected links.

ExtMatrix Download Links

Cool.World.1992.1080p.Amazon.Direct-WEB-DL.mkv