Big thanks to ASZA!

Series Info

# of Seasons: 4
Country: US
Air Day: Tuesday
Air Time: 10:00 PM
First Aired: 2010-07-13
Rating: TV-14
Series Status: Returning Series
Runtime: 60 Minutes
Network: USA Network
Classification: Scripted
TVDB Rating: 8.2
External Links:

General
Complete name : Covert.Affairs.S02E06.The.Outsiders.1080p.WEB-DL.DD5.1.H.264-ASZA.mkv
Format : Matroska
Format version : Version 4 / Version 2
File size : 1.64 GiB
Duration : 42mn 23s
Overall bit rate : 5 542 Kbps
Movie name : ripped by AssenzA
Encoded date : UTC 2013-07-13 17:59:17
Writing application : mkvmerge v6.3.0 (‘You can’t stop me!’) built on Jun 27 2013 22:06:07
Writing library : libebml v1.3.0 + libmatroska v1.4.0

Video
ID : 1
Format : AVC
Format/Info : Advanced Video Codec
Format profile : High@L4.0
Format settings, CABAC : Yes
Format settings, ReFrames : 4 frames
Codec ID : V_MPEG4/ISO/AVC
Duration : 42mn 23s
Bit rate : 5 048 Kbps
Width : 1 920 pixels
Height : 1 080 pixels
Display aspect ratio : 16:9
Frame rate mode : Constant
Frame rate : 23.976 fps
Color space : YUV
Chroma subsampling : 4:2:0
Bit depth : 8 bits
Scan type : Progressive
Bits/(Pixel*Frame) : 0.102
Stream size : 1.49 GiB (91%)
Title : ripped by AssenzA
Language : English
Default : Yes
Forced : No
Color primaries : BT.709
Transfer characteristics : BT.709
Matrix coefficients : BT.709

Audio
ID : 2
Format : AC-3
Format/Info : Audio Coding 3
Mode extension : CM (complete main)
Format settings, Endianness : Big
Codec ID : A_AC3
Duration : 42mn 23s
Bit rate mode : Constant
Bit rate : 384 Kbps
Channel(s) : 6 channels
Channel positions : Front: L C R, Side: L R, LFE
Sampling rate : 48.0 KHz
Bit depth : 16 bits
Compression mode : Lossy
Stream size : 116 MiB (7%)
Language : English
Default : Yes
Forced : No

Screenshot:

Sign up via clicking banner and a file link to creat a premium account.

ExtMatrix Download Links
Covert.Affairs.S01E01.Pilot.1080p.WEB-DL.DD5.1.H.264-ASZA.mkv
Covert.Affairs.S01E02.Walters.Walk.1080p.WEB-DL.DD5.1.H.264-ASZA.mkv
Click Here for downloading links Covert Affairs S01 S02 1080p WEB-DL DD5.1 H.264 ASZA