Covert Affairs S03E10 720p WEB-DL DD5 1 H 264-ECI
Covert Affairs S03E10 720p WEB-DL DD5 1 H 264-ECI

Series Info

# of Seasons: 3
Country: US
Air Day: Tuesday
Air Time: 10:00 PM
First Aired: 2010-07-13
Rating: TV-14
Series Status: Returning Series
Runtime: 60 Minutes
Network: USA Network
Classification: Scripted
TVDB Rating: 8.2
External Links:

Covert Affairs (2010)

TV Series  –  60 min  –  tvAction | tvCrime | tvDrama
7.2

Your rating:

  -/10
Ratings: 7.2/10 from 8,245 users
Reviews: 40 user | 12 critic

A young CIA operative/trainee, Annie Walker, is sent into the field to work for the DPD (Domestic Protection Division)… See full summary »

Creators:

Chris Ord, Matt Corman

Stars:

Piper Perabo, Christopher Gorham and Kari Matchett |

General
Complete name : Covert.Affairs.S03E10.Let’s.Dance.720p.WEB-DL.DD5.1.H.264-ECI.mkv
Format : Matroska
Format version : Version 2
File size : 1.33 GiB
Duration : 42mn 36s
Overall bit rate : 4 472 Kbps

Video
Format : AVC
Duration : 42mn 36s
Bit rate : 3 999 Kbps
Width : 1 280 pixels
Height : 720 pixels
Display aspect ratio : 16:9
Frame rate : 23.976 fps
Color space : YUV
Chroma subsampling : 4:2:0
Bit depth : 8 bits
Scan type : Progressive
Bits/(Pixel*Frame) : 0.181
Stream size : 1.19 GiB (89%)
Language : English

Audio
Format : AC-3
Duration : 42mn 36s
Bit rate mode : Constant
Bit rate : 384 Kbps
Channel(s) : 6 channels
Channel positions : Front: L C R, Side: L R, LFE
Sampling rate : 48.0 KHz
Bit depth : 16 bits
Compression mode : Lossy
Stream size : 117 MiB (9%)
Language : English

 

http://www.imagebam.com/image/76d1b4211258266

http://www.imagebam.com/image/fdc72b211258312

http://www.imagebam.com/image/5f1740211258356

http://www.imagebam.com/image/f2da6f211258390

File Name Size
Covert.Affairs.S03E10.Let’s.Dance.720p.WEB DL.DD5.1.H.264 ECI.mkv 1.33 GB


Sign up via clicking banner and a file link to creat a premium account.

Covert Affairs S03E10 720p WEB-DL DD5 1 H 264-ECI
ExtMatrix Download Links