External Links:

General
Complete name : Crossing.Lines.S01E03.The.Terminator.1080p.WEB-DL.DD5.1.H.264-BS.mkv
Format : Matroska
Format version : Version 2
File size : 1.62 GiB
Duration : 42mn 29s
Overall bit rate : 5 470 Kbps
Writing application : mkvmerge v5.8.0 (‘No Sleep / Pillow’) built on Sep 2 2012 15:37:04
Writing library : libebml v1.2.3 + libmatroska v1.3.0

Video
ID : 1
Format : AVC
Format/Info : Advanced Video Codec
Format profile : High@L4.0
Format settings, CABAC : Yes
Format settings, ReFrames : 4 frames
Codec ID : V_MPEG4/ISO/AVC
Duration : 42mn 29s
Bit rate : 4 977 Kbps
Width : 1 912 pixels
Height : 1 072 pixels
Display aspect ratio : 16:9
Frame rate mode : Constant
Frame rate : 23.976 fps
Color space : YUV
Chroma subsampling : 4:2:0
Bit depth : 8 bits
Scan type : Progressive
Bits/(Pixel*Frame) : 0.101
Stream size : 1.48 GiB (91%)
Language : English
Default : Yes
Forced : No
Color primaries : BT.709
Transfer characteristics : BT.709
Matrix coefficients : BT.709

Audio
ID : 2
Format : AC-3
Format/Info : Audio Coding 3
Mode extension : CM (complete main)
Format settings, Endianness : Big
Codec ID : A_AC3
Duration : 42mn 29s
Bit rate mode : Constant
Bit rate : 384 Kbps
Channel(s) : 6 channels
Channel positions : Front: L C R, Side: L R, LFE
Sampling rate : 48.0 KHz
Bit depth : 16 bits
Compression mode : Lossy
Stream size : 117 MiB (7%)
Language : English
Default : Yes
Forced : No

Text
ID : 3
Format : UTF-8
Codec ID : S_TEXT/UTF8
Codec ID/Info : UTF-8 Plain Text
Title : CC
Language : English
Default : Yes
Forced : No
Crossing.Lines.S01E01.Pilot.Part.1.1080p.WEB DL.DD5.1.H.264 BS.mkv    1.59 GB
Crossing.Lines.S01E02.Pilot.Part.2.1080p.WEB DL.DD5.1.H.264 BS.mkv    1.55 GB
Crossing.Lines.S01E03.The.Terminator.1080p.WEB DL.DD5.1.H.264 BS.mkv    1.62 GB
Crossing.Lines.S01E04.Long Haul.Predators.1080p.WEB DL.DD5.1.H.264 BS.mkv    1.63 GB
Crossing.Lines.S01E05.Special.Ops.Part.1.1080p.WEB DL.DD5.1.H.264 BS.mkv    1.68 GB
Crossing.Lines.S01E06.Special.Ops.Part.2.1080p.WEB DL.DD5.1.H.264 BS.mkv    1.61 GB
Crossing.Lines.S01E07.The.Animals.1080p.WEB DL.DD5.1.H.264 BS.mkv    1.66 GB
Crossing.Lines.S01E08.Desperation.and.Desperados.1080p.WEB DL.DD5.1.H.264 BS.mkv    1.65 GB
Crossing.Lines.S01E09.New.Scars.and.Old.Wounds.Part.1.1080p.WEB DL.DD5.1.H.264 BS.mkv    1.65 GB
Crossing.Lines.S01E10.New.Scars.and.Old.Wounds.Part.2.1080p.WEB DL.DD5.1.H.264 BS.mkv    1.63 GB

File Name Size
Crossing.Lines.S01E01.720p.BluRay.X264 REWARD.mkv 2.18 GB
Crossing.Lines.S01E02.720p.BluRay.X264 REWARD.mkv 2.18 GB
Crossing.Lines.S01E03.720p.BluRay.X264 REWARD.mkv 2.18 GB
Crossing.Lines.S01E04.720p.BluRay.X264 REWARD.mkv 2.18 GB
Crossing.Lines.S01E05.720p.BluRay.X264 REWARD.mkv 2.18 GB
Crossing.Lines.S01E06.720p.BluRay.X264 REWARD.mkv 2.18 GB
Crossing.Lines.S01E07.720p.BluRay.X264 REWARD.mkv 2.18 GB
Crossing.Lines.S01E08.720p.BluRay.X264 REWARD.mkv 2.18 GB
Crossing.Lines.S01E09.720p.BluRay.X264 REWARD.mkv 2.18 GB
Crossing.Lines.S01E10.720p.BluRay.X264 REWARD.mkv 2.18 GB

Screenshot:

Sign up via clicking banner and a file link to creat a premium account.

ExtMatrix Download Links

Crossing.Lines.S01E02.Pilot.Part.2.1080p.WEB-DL.DD5.1.H.264-BS.mkv
Crossing.Lines.S01E03.The.Terminator.1080p.WEB-DL.DD5.1.H.264-BS.mkv
Crossing.Lines.S01E04.Long-Haul.Predators.1080p.WEB-DL.DD5.1.H.264-BS.mkv
Crossing.Lines.S01E05.Special.Ops.Part.1.1080p.WEB-DL.DD5.1.H.264-BS.mkv
Crossing.Lines.S01E06.Special.Ops.Part.2.1080p.WEB-DL.DD5.1.H.264-BS.mkv
Crossing.Lines.S01E07.The.Animals.1080p.WEB-DL.DD5.1.H.264-BS.mkv
Crossing.Lines.S01E08.Desperation.and.Desperados.1080p.WEB-DL.DD5.1.H.264-BS.mkv
Crossing.Lines.S01E10.New.Scars.and.Old.Wounds.Part.2.1080p.WEB-DL.DD5.1.H.264-BS.mkv
Crossing.Lines.S01E01.720p.BluRay.X264-REWARD.mkv
Crossing.Lines.S01E02.720p.BluRay.X264-REWARD.mkv
Crossing.Lines.S01E04.720p.BluRay.X264-REWARD.mkv
Crossing.Lines.S01E05.720p.BluRay.X264-REWARD.mkv
Crossing.Lines.S01E06.720p.BluRay.X264-REWARD.mkv
Crossing.Lines.S01E07.720p.BluRay.X264-REWARD.mkv
Crossing.Lines.S01E08.720p.BluRay.X264-REWARD.mkv
Crossing.Lines.S01E09.720p.BluRay.X264-REWARD.mkv
Crossing.Lines.S01E10.720p.BluRay.X264-REWARD.mkv
Crossing.Lines.S01E01.Pilot.Part.1.1080p.WEB-DL.DD5.1.H.264-BS.mkv
Crossing.Lines.S01E03.720p.BluRay.X264-REWARD.mkv
Crossing.Lines.S01E09.New.Scars.and.Old.Wounds.Part.1.1080p.WEB-DL.DD5.1.H.264-BS.mkv