External Links:

General
Complete name : CSI.S14E01.The.Devil.and.D.B.Russell.1080p.WEB-DL.DD5.1.H.264-CtrlHD.mkv
Format : Matroska
Format version : Version 2
File size : 1.64 GiB
Duration : 42mn 59s
Overall bit rate : 5 446 Kbps

Video
ID : 1
Format : AVC
Format/Info : Advanced Video Codec
Format profile : High@L4.0
Format settings, CABAC : Yes
Format settings, ReFrames : 4 frames
Codec ID : V_MPEG4/ISO/AVC
Duration : 42mn 59s
Bit rate : 4 953 Kbps
Width : 1 920 pixels
Height : 1 080 pixels
Display aspect ratio : 16:9
Frame rate mode : Constant
Frame rate : 23.976 fps
Color space : YUV
Chroma subsampling : 4:2:0
Bit depth : 8 bits
Scan type : Progressive
Bits/(Pixel*Frame) : 0.100
Stream size : 1.49 GiB (91%)
Language : English
Default : Yes
Forced : No
Color primaries : BT.709
Transfer characteristics : BT.709
Matrix coefficients : BT.709

Audio
ID : 2
Format : AC-3
Format/Info : Audio Coding 3
Mode extension : CM (complete main)
Format settings, Endianness : Big
Codec ID : A_AC3
Duration : 42mn 59s
Bit rate mode : Constant
Bit rate : 384 Kbps
Channel(s) : 6 channels
Channel positions : Front: L C R, Side: L R, LFE
Sampling rate : 48.0 KHz
Bit depth : 16 bits
Compression mode : Lossy
Stream size : 118 MiB (7%)
Language : English
Default : Yes
Forced : No

Text
ID : 3
Format : UTF-8
Codec ID : S_TEXT/UTF8
Codec ID/Info : UTF-8 Plain Text
Title : CC
Language : English
Default : No
Forced : No

CSI.S14.Season.13.Recap.1080p.WEB-DL.AAC2.0.H.264.HKD.mkv 190.45 MB

Screenshot:

Sign up via clicking banner and a file link to creat a premium account.Then Get the access to protected links.

ExtMatrix Download Links

CSI.S14.Season.13.Recap.1080p.WEB-DL.AAC2.0.H.264.HKD.mkv
CSI.S14E01.The.Devil.and.D.B.Russell.1080p.WEB-DL.DD5.1.H.264-CtrlHD.mkv
CSI.S14E02.Take.the.Money.and.Run.1080p.WEB-DL.DD5.1.H.264-CtrlHD.mkv
CSI.S14E03.Torch.Song.1080p.WEB-DL.DD5.1.H.264-CtrlHD.mkv
CSI.S14E04.Last.Supper.1080p.WEB-DL.DD5.1.H.264-CtrlHD.mkv
CSI.S14E05.Frame.By.Frame.1080p.WEB-DL.DD5.1.H.264-CtrlHD.mkv
CSI.S14E06.Passed.Pawns.1080p.WEB-DL.DD5.1.H.264-CtrlHD.mkv
CSI.S14E07.Under.A.Cloud.1080p.WEB-DL.DD5.1.H.264-CtrlHD.mkv
CSI.S14E08.Helpless.1080p.WEB-DL.DD5.1.H.264-CtrlHD.mkv
CSI.S14E09.720p.HDTV.X264-DIMENSION.mkv
CSI.S14E10.720p.HDTV.X264-DIMENSION.mkv
CSI.S14E11.The.Lost.Reindeer.1080p.WEB-DL.DD5.1.H.264-CtrlHD.mkv
CSI.S14E12.720p.HDTV.X264-DIMENSION.mkv

Click Here for downloading links CSI S14E09 1080p WEB-DL DD5 1 H 264 HKD

Click Here for downloading links CSI S14E10 1080p WEB-DL DD5 1 H 264 HKD