Useful link:

MediaInfo:
General
Complete name : Damage.1992.720p.BluRay.X264-AMIABLE.mkv
Format : Matroska
Format version : Version 2
File size : 5.46 GiB
Duration : 1h 51mn
Overall bit rate : 7 042 Kbps

Video
ID : 1
Format : AVC
Format/Info : Advanced Video Codec
Format profile : High@L4.1
Format settings, CABAC : Yes
Format settings, ReFrames : 5 frames
Codec ID : V_MPEG4/ISO/AVC
Duration : 1h 51mn
Bit rate : 6 405 Kbps
Width : 1 280 pixels
Height : 696 pixels
Display aspect ratio : 1.85:1
Frame rate mode : Constant
Frame rate : 23.976 fps
Color space : YUV
Chroma subsampling : 4:2:0
Bit depth : 8 bits
Scan type : Progressive
Bits/(Pixel*Frame) : 0.300
Stream size : 4.86 GiB (89%)
Writing library : x264 core 140 r2377 1ca7bb9
Encoding settings : cabac=1 / ref=5 / deblock=1:-3:-3 / analyse=0x3:0x113 / me=umh / subme=8 /

Audio
ID : 2
Format : AC-3
Format/Info : Audio Coding 3
Mode extension : CM (complete main)
Format settings, Endianness : Big
Codec ID : A_AC3
Duration : 1h 51mn
Bit rate mode : Constant
Bit rate : 640 Kbps
Channel(s) : 2 channels
Channel positions : Front: L R
Sampling rate : 48.0 KHz
Bit depth : 16 bits
Compression mode : Lossy
Stream size : 508 MiB (9%)
Language : English
Default : Yes
Forced : No

Text
ID : 3
Format : UTF-8
Codec ID : S_TEXT/UTF8
Codec ID/Info : UTF-8 Plain Text
Language : English
Default : No
Forced : No

Menu
00:00:00.000 : en:00:00:00.000
00:08:36.349 : en:00:08:36.349
00:20:18.759 : en:00:20:18.759
00:28:02.389 : en:00:28:02.389
00:38:37.232 : en:00:38:37.232
00:53:34.253 : en:00:53:34.253
01:05:21.042 : en:01:05:21.042
01:15:33.988 : en:01:15:33.988
01:26:24.179 : en:01:26:24.179
01:34:49.475 : en:01:34:49.475
01:42:04.577 : en:01:42:04.577

Screenshot:

Sign up via clicking banner and a file link to creat a premium account.Then Get the access to protected links.

ExtMatrix Download Links

Damage.1992.720p.BluRay.X264-AMIABLE.mkv