External Links:

General
Complete name : Dead.Like.Me.S01E14.720p.x264.DD5.1-HDL.mkv
Format : Matroska
Format version : Version 1
File size : 1.46 GiB
Duration : 41mn 1s
Overall bit rate : 5 086 Kbps

Video
ID : 1
Format : AVC
Format/Info : Advanced Video Codec
Format profile : High@L5.1
Format settings, CABAC : Yes
Format settings, ReFrames : 11 frames
Codec ID : V_MPEG4/ISO/AVC
Duration : 41mn 1s
Bit rate : 4 700 Kbps
Width : 1 280 pixels
Height : 712 pixels
Display aspect ratio : 16:9
Frame rate mode : Constant
Frame rate : 23.976 fps
Color space : YUV
Chroma subsampling : 4:2:0
Bit depth : 8 bits
Scan type : Progressive
Bits/(Pixel*Frame) : 0.215
Stream size : 1.32 GiB (90%)
Writing library : x264 core 56 svn-667C
Encoding settings : cabac=1 / ref=8 / deblock=1:0:0 / analyse=0x3:0x133 / me=hex / subme=6 /

Audio
ID : 2
Format : AC-3
Format/Info : Audio Coding 3
Mode extension : CM (complete main)
Format settings, Endianness : Big
Codec ID : A_AC3
Duration : 41mn 1s
Bit rate mode : Constant
Bit rate : 384 Kbps
Channel(s) : 2 channels
Channel positions : Front: L R
Sampling rate : 48.0 KHz
Bit depth : 16 bits
Compression mode : Lossy
Stream size : 113 MiB (8%)
Language : English
Default : Yes
Forced : No

File Name Size
Dead.Like.Me.S01E01.720p.x264.DD5.1 HDL.mkv 2.18 GB
Dead.Like.Me.S01E02.720p.x264.DD5.1 HINT.mkv 1.43 GB
Dead.Like.Me.S01E03.720p.x264.DD5.1 HINT.mkv 1.43 GB
Dead.Like.Me.S01E04.720p.x264.DD5.1 HINT.mkv 1.43 GB
Dead.Like.Me.S01E05.720p.x264.DD5.1 HINT.mkv 1.43 GB
Dead.Like.Me.S01E06.720p.x264.DD5.1 HINT.mkv 1.43 GB
Dead.Like.Me.S01E07.720p.x264.DD5.1 HINT.mkv 1.43 GB
Dead.Like.Me.S01E08.720p.x264.DD5.1 HINT.mkv 1.43 GB
Dead.Like.Me.S01E09.720p.x264.DD5.1 HINT.mkv 1.43 GB
Dead.Like.Me.S01E10.720p.x264.DD5.1 HINT.mkv 1.43 GB
Dead.Like.Me.S01E11.720p.x264.DD5.1 HINT.mkv 1.43 GB
Dead.Like.Me.S01E12.720p.x264.DD5.1 HINT.mkv 1.43 GB
Dead.Like.Me.S01E13.720p.x264.DD5.1 HDL.mkv 1.46 GB
Dead.Like.Me.S01E14.720p.x264.DD5.1 HDL.mkv 1.46 GB
File Name Size
Dead Like Me S02E01 720p HDTV DD5.1 x264 BG.mkv 2.18 GB
Dead Like Me S02E02 720p HDTV DD5.1 x264 BG.mkv 2.18 GB
Dead Like Me S02E03 720p HDTV DD5.1 x264 BG.mkv 2.18 GB
Dead Like Me S02E04 720p HDTV DD5.1 x264 BG.mkv 2.18 GB
Dead Like Me S02E05 720p HDTV DD5.1 x264 BG.mkv 2.18 GB
Dead Like Me S02E06 720p HDTV DD5.1 x264 BG.mkv 2.18 GB
Dead Like Me S02E07 720p HDTV DD5.1 x264 BG.mkv 2.18 GB
Dead Like Me S02E08 720p HDTV DD5.1 x264 BG.mkv 2.18 GB
Dead Like Me S02E09 720p HDTV DD5.1 x264 BG.mkv 2.18 GB
Dead Like Me S02E10 720p HDTV DD5.1 x264 BG.mkv 2.18 GB
Dead Like Me S02E11 720p HDTV DD5.1 x264 BG.mkv 2.18 GB
Dead Like Me S02E12 720p HDTV DD5.1 x264 BG.mkv 2.18 GB
Dead Like Me S02E13 720p HDTV DD5.1 x264 BG.mkv 2.18 GB
Dead Like Me S02E14 720p HDTV DD5.1 x264 BG.mkv 2.18 GB
Dead Like Me S02E15 720p HDTV DD5.1 x264 BG.mkv 2.18 GB

Screenshot:

Sign up via clicking banner and a file link to creat a premium account.Then Get the access to protected links.

ExtMatrix Download Links

Dead.Like.Me.S01E01.720p.x264.DD5.1-HDL.mkv

Click Here for downloading links Dead Like Me S01 S02 Complete 720p HDTV DD5.1 x264 HINT HDL BG