Useful link:

MediaInfo:
General
Complete name : vedett-despicableme2-720p.mkv
Format : Matroska
Format version : Version 4 / Version 2
File size : 3.28 GiB
Duration : 1h 37mn
Overall bit rate : 4 790 Kbps

Video
ID : 1
Format : AVC
Format/Info : Advanced Video Codec
Format profile : High@L4.1
Format settings, CABAC : Yes
Format settings, ReFrames : 5 frames
Codec ID : V_MPEG4/ISO/AVC
Duration : 1h 37mn
Bit rate : 3 280 Kbps
Width : 1 280 pixels
Height : 696 pixels
Display aspect ratio : 1.85:1
Frame rate mode : Constant
Frame rate : 23.976 fps
Color space : YUV
Chroma subsampling : 4:2:0
Bit depth : 8 bits
Scan type : Progressive
Bits/(Pixel*Frame) : 0.154
Stream size : 2.18 GiB (67%)
Writing library : x264 core 138 r2358 9e941d1
Encoding settings : cabac=1 / ref=5 / deblock=1:0:0 / analyse=0x3:0x133 / me=umh / subme=7 /

Audio
ID : 2
Format : DTS
Format/Info : Digital Theater Systems
Mode : 16
Format settings, Endianness : Big
Codec ID : A_DTS
Duration : 1h 37mn
Bit rate mode : Constant
Bit rate : 1 509 Kbps
Channel(s) : 6 channels
Channel positions : Front: L C R, Side: L R, LFE
Sampling rate : 48.0 KHz
Bit depth : 24 bits
Compression mode : Lossy
Stream size : 1.03 GiB (32%)
Language : English
Default : Yes
Forced : No

Menu
00:00:00.000 : en:00:00:00.000
00:03:22.994 : en:00:03:22.994
00:08:04.734 : en:00:08:04.734
00:15:50.867 : en:00:15:50.867
00:18:28.232 : en:00:18:28.232
00:24:36.892 : en:00:24:36.892
00:30:50.724 : en:00:30:50.724
00:34:40.704 : en:00:34:40.704
00:40:48.279 : en:00:40:48.279
00:46:26.200 : en:00:46:26.200
00:51:23.122 : en:00:51:23.122
00:56:27.426 : en:00:56:27.426
01:00:00.472 : en:01:00:00.472
01:03:27.053 : en:01:03:27.053
01:08:44.078 : en:01:08:44.078
01:14:01.979 : en:01:14:01.979
01:18:08.058 : en:01:18:08.058
01:22:33.907 : en:01:22:33.907
01:27:09.099 : en:01:27:09.099
01:30:33.720 : en:01:30:33.720

Screenshot:

Sign up via clicking banner and a file link to creat a premium account.Then Get the access to protected links.

ExtMatrix Download Links

vedett-despicableme2720p.idx
vedett-despicableme2-720p.mkv
vedett-despicableme2720p.sub