External Links:

General
Complete name : Devious.Maids.S02E01.An.Ideal.Husband.1080p.WEB-DL.DD5.1.H.264-BS.mkv
Format : Matroska
Format version : Version 2
File size : 1.59 GiB
Duration : 42mn 18s
Overall bit rate : 5 370 Kbps

Video
ID : 1
Format : AVC
Format/Info : Advanced Video Codec
Format profile : High@L4.0
Format settings, CABAC : Yes
Format settings, ReFrames : 4 frames
Codec ID : V_MPEG4/ISO/AVC
Duration : 42mn 18s
Bit rate : 4 879 Kbps
Width : 1 920 pixels
Height : 1 080 pixels
Display aspect ratio : 16:9
Frame rate mode : Constant
Frame rate : 23.976 fps
Color space : YUV
Chroma subsampling : 4:2:0
Bit depth : 8 bits
Scan type : Progressive
Bits/(Pixel*Frame) : 0.098
Stream size : 1.44 GiB (91%)
Language : English
Default : Yes
Forced : No
Color primaries : BT.709
Transfer characteristics : BT.709
Matrix coefficients : BT.709

Audio
ID : 2
Format : AC-3
Format/Info : Audio Coding 3
Mode extension : CM (complete main)
Format settings, Endianness : Big
Codec ID : A_AC3
Duration : 42mn 18s
Bit rate mode : Constant
Bit rate : 384 Kbps
Channel(s) : 6 channels
Channel positions : Front: L C R, Side: L R, LFE
Sampling rate : 48.0 KHz
Bit depth : 16 bits
Compression mode : Lossy
Stream size : 116 MiB (7%)
Language : English
Default : Yes
Forced : No

Text
ID : 3
Format : UTF-8
Codec ID : S_TEXT/UTF8
Codec ID/Info : UTF-8 Plain Text
Title : CC
Language : English
Default : No
Forced : No
Devious.Maids.S02E01.An.Ideal.Husband.720p.WEB DL.DD5.1.H.264 BS.mkv 1.28 GB
Devious.Maids.S02E02.The.Dark.at.the.Top.of.the.Stairs.720p.WEB DL.DD5.1.H.264 BS.mkv 1.34 GB
Devious.Maids.S02E03.Dangerous.Liaisons.720p.WEB DL.DD5.1.H.264 BS.mkv 1.27 GB
Devious.Maids.S02E04.Crimes.of.the.Heart.720p.WEB DL.DD5.1.H.264 BS.mkv 1.32 GB
Devious.Maids.S02E05.The.Bad.Seed.720p.WEB DL.DD5.1.H.264 BS.mkv 1.27 GB
Devious.Maids.S02E06.Private.Lives.720p.WEB DL.DD5.1.H.264 BS.mkv 1.27 GB
Devious.Maids.S02E07.Betrayal.720p.WEB DL.DD5.1.H.264 BS.mkv 1.29 GB
Devious.Maids.S02E08.Night.Mother.720p.WEB DL.DD5.1.H.264 BS.mkv 1.32 GB
Devious.Maids.S02E09.The.Visit.720p.WEB DL.DD5.1.H.264 BS.mkv 1.28 GB
Devious.Maids.S02E10.Long.Day’s.Journey.Into.Night.720p.WEB DL.DD5.1.H.264 BS.mkv 1.25 GB
Devious.Maids.S02E11.You.Can’t.Take.It.With.You.720p.WEB DL.DD5.1.H.264 BS.mkv 1.30 GB
Devious.Maids.S02E12.Proof.720p.WEB DL.DD5.1.H.264 BS.mkv 1.27 GB
Devious.Maids.S02E13.Look.Back.in.Anger.720p.WEB DL.DD5.1.H.264 BS.mkv 1.31 GB

Devious.Maids.S02E01.An.Ideal.Husband.1080p.WEB DL.DD5.1.H.264 BS.mkv 1.59 GB
Devious.Maids.S02E02.The.Dark.at.the.Top.of.the.Stairs.1080p.WEB DL.DD5.1.H.264 BS.mkv 1.62 GB
Devious.Maids.S02E03.Dangerous.Liaisons.1080p.WEB DL.DD5.1.H.264 BS.mkv 1.61 GB
Devious.Maids.S02E04.Crimes.of.the.Heart.1080p.WEB DL.DD5.1.H.264 BS.mkv 1.60 GB
Devious.Maids.S02E05.The.Bad.Seed.1080p.WEB DL.DD5.1.H.264 HKD.mkv 1.57 GB
Devious.Maids.S02E06.Private.Lives.1080p.WEB DL.DD5.1.H.264 HKD.mkv 1.56 GB
Devious.Maids.S02E07.Betrayal.1080p.WEB DL.DD5.1.H.264 HKD.mkv 1.55 GB
Devious.Maids.S02E08.Night.Mother.1080p.WEB DL.DD5.1.H.264 HKD.mkv 1.55 GB
Devious.Maids.S02E09.The.Visit.1080p.WEB DL.DD5.1.H.264 HKD.mkv 1.60 GB
Devious.Maids.S02E10.Long.Day’s.Journey.Into.Night.1080p.WEB DL.DD5.1.H.264 BS.mkv 1.58 GB
Devious.Maids.S02E11.You.Can’t.Take.It.With.You.1080p.WEB DL.DD5.1.H.264 HKD.mkv 1.62 GB
Devious.Maids.S02E12.Proof.1080p.WEB DL.DD5.1.H.264 BS.mkv 1.60 GB
Devious.Maids.S02E13.Look.Back.in.Anger.1080p.WEB DL.DD5.1.H.264 BS.mkv 1.63 GB
Screenshot:

Sign up via clicking banner and a file link to creat a premium account.

ExtMatrix Download Links

Devious.Maids.S02E01.An.Ideal.Husband.720p.WEB-DL.DD5.1.H.264-BS.mkv
Devious.Maids.S02E02.The.Dark.at.the.Top.of.the.Stairs.720p.WEB-DL.DD5.1.H.264-BS.mkv
Devious.Maids.S02E03.Dangerous.Liaisons.720p.WEB-DL.DD5.1.H.264-BS.mkv
Devious.Maids.S02E04.Crimes.of.the.Heart.720p.WEB-DL.DD5.1.H.264-BS.mkv
Devious.Maids.S02E05.The.Bad.Seed.720p.WEB-DL.DD5.1.H.264-BS.mkv
Devious.Maids.S02E06.Private.Lives.720p.WEB-DL.DD5.1.H.264-BS.mkv
Devious.Maids.S02E07.Betrayal.720p.WEB-DL.DD5.1.H.264-BS.mkv
Devious.Maids.S02E08.Night.Mother.720p.WEB-DL.DD5.1.H.264-BS.mkv
Devious.Maids.S02E09.The.Visit.720p.WEB-DL.DD5.1.H.264-BS.mkv
Devious.Maids.S02E10.Long.Day.s.Journey.Into.Night.720p.WEB-DL.DD5.1.H.264-BS.mkv
Devious.Maids.S02E11.You.Can.t.Take.It.With.You.720p.WEB-DL.DD5.1.H.264-BS.mkv
Devious.Maids.S02E12.Proof.720p.WEB-DL.DD5.1.H.264-BS.mkv
Devious.Maids.S02E13.Look.Back.in.Anger.720p.WEB-DL.DD5.1.H.264-BS.mkv

Click Here for downloading links Devious Maids S02 Complete Season 1080p WEB-DL DD5 1 H 264 BS HKD