External Links:   

General
Complete name : doctor.who.2005.s01e11.720p.bluray.x264-shortbrehd.mkv
Format : Matroska
Format version : Version 2
File size : 2.18 GiB
Duration : 45mn 27s
Overall bit rate : 6 877 Kbps

Video
ID : 1
Format : AVC
Format/Info : Advanced Video Codec
Format profile : High@L4.1
Format settings, CABAC : Yes
Format settings, ReFrames : 5 frames
Codec ID : V_MPEG4/ISO/AVC
Duration : 45mn 27s
Bit rate : 5 365 Kbps
Width : 1 280 pixels
Height : 720 pixels
Display aspect ratio : 16:9
Frame rate mode : Constant
Frame rate : 23.976 fps
Color space : YUV
Chroma subsampling : 4:2:0
Bit depth : 8 bits
Scan type : Progressive
Bits/(Pixel*Frame) : 0.243
Stream size : 1.66 GiB (76%)
Writing library : x264 core 138 r2358 9e941d1
Encoding settings : cabac=1 / ref=5 / deblock=1:-2:-2 / analyse=0x3:0x113 / me=umh / subme=8 /

Audio
ID : 2
Format : DTS
Format/Info : Digital Theater Systems
Mode : 16
Format settings, Endianness : Big
Codec ID : A_DTS
Duration : 45mn 27s
Bit rate mode : Constant
Bit rate : 1 509 Kbps
Channel(s) : 6 channels
Channel positions : Front: L C R, Side: L R, LFE
Sampling rate : 48.0 KHz
Bit depth : 24 bits
Compression mode : Lossy
Stream size : 491 MiB (22%)
Language : English
Default : Yes
Forced : No

Menu
00:00:00.000 : en:00:00:00.000
00:05:24.991 : en:00:05:24.991
00:09:10.800 : en:00:09:10.800
00:12:27.205 : en:00:12:27.205
00:16:55.014 : en:00:16:55.014
00:20:21.178 : en:00:20:21.178
00:26:38.972 : en:00:26:38.972
00:28:57.611 : en:00:28:57.611
00:32:50.468 : en:00:32:50.468
00:37:00.885 : en:00:37:00.885
00:41:07.131 : en:00:41:07.131
00:43:42.203 : en:00:43:42.203
00:44:23.160 : en:00:44:23.160

File name Size
doctor.who.2005.s01e01.720p.bluray.x264-shortbrehd.mkv 2.18 GB
doctor.who.2005.s01e02.720p.bluray.x264-shortbrehd.mkv 2.18 GB
doctor.who.2005.s01e03.720p.bluray.x264-shortbrehd.mkv 2.18 GB
doctor.who.2005.s01e04.720p.bluray.x264-shortbrehd.mkv 2.18 GB
doctor.who.2005.s01e05.720p.bluray.x264-shortbrehd.mkv 2.18 GB
doctor.who.2005.s01e06.720p.bluray.x264-shortbrehd.mkv 2.18 GB
doctor.who.2005.s01e07.720p.bluray.x264-shortbrehd.mkv 2.18 GB
doctor.who.2005.s01e08.720p.bluray.x264-shortbrehd.mkv 2.18 GB
doctor.who.2005.s01e09.720p.bluray.x264-shortbrehd.mkv 2.18 GB
doctor.who.2005.s01e10.720p.bluray.x264-shortbrehd.mkv 2.18 GB
doctor.who.2005.s01e11.720p.bluray.x264-shortbrehd.mkv 2.18 GB
doctor.who.2005.s01e12.720p.bluray.x264-shortbrehd.mkv 2.18 GB
doctor.who.2005.s01e13.720p.bluray.x264-shortbrehd.mkv 2.18 GB

Screenshot:

Sign up via clicking banner and a file link to creat a premium account.Then Get the access to protected links.

ExtMatrix Download Links

doctor.who.2005.s01e01.720p.bluray.x264-shortbrehd.mkv
doctor.who.2005.s01e02.720p.bluray.x264-shortbrehd.mkv
doctor.who.2005.s01e03.720p.bluray.x264-shortbrehd.mkv
doctor.who.2005.s01e04.720p.bluray.x264-shortbrehd.mkv
doctor.who.2005.s01e05.720p.bluray.x264-shortbrehd.mkv
doctor.who.2005.s01e06.720p.bluray.x264-shortbrehd.mkv
doctor.who.2005.s01e07.720p.bluray.x264-shortbrehd.mkv
doctor.who.2005.s01e08.720p.bluray.x264-shortbrehd.mkv
doctor.who.2005.s01e09.720p.bluray.x264-shortbrehd.mkv
doctor.who.2005.s01e10.720p.bluray.x264-shortbrehd.mkv
doctor.who.2005.s01e11.720p.bluray.x264-shortbrehd.mkv
doctor.who.2005.s01e12.720p.bluray.x264-shortbrehd.mkv
doctor.who.2005.s01e13.720p.bluray.x264-shortbrehd.mkv