External Links:   

General
Complete name : doctor.who.2005.s02e12.720p.bluray.x264-shortbrehd.mkv
Format : Matroska
Format version : Version 2
File size : 2.18 GiB
Duration : 45mn 29s
Overall bit rate : 6 870 Kbps

Video
ID : 1
Format : AVC
Format/Info : Advanced Video Codec
Format profile : High@L4.1
Format settings, CABAC : Yes
Format settings, ReFrames : 5 frames
Codec ID : V_MPEG4/ISO/AVC
Duration : 45mn 29s
Bit rate : 5 358 Kbps
Width : 1 264 pixels
Height : 720 pixels
Display aspect ratio : 16:9
Frame rate mode : Constant
Frame rate : 23.976 fps
Color space : YUV
Chroma subsampling : 4:2:0
Bit depth : 8 bits
Scan type : Progressive
Bits/(Pixel*Frame) : 0.246
Stream size : 1.66 GiB (76%)
Writing library : x264 core 138 r2358 9e941d1
Encoding settings : cabac=1 / ref=5 / deblock=1:-2:-2 / analyse=0x3:0x113 / me=umh / subme=8 / psy=1 /

Audio
ID : 2
Format : DTS
Format/Info : Digital Theater Systems
Mode : 16
Format settings, Endianness : Big
Codec ID : A_DTS
Duration : 45mn 29s
Bit rate mode : Constant
Bit rate : 1 509 Kbps
Channel(s) : 6 channels
Channel positions : Front: L C R, Side: L R, LFE
Sampling rate : 48.0 KHz
Bit depth : 24 bits
Compression mode : Lossy
Stream size : 491 MiB (22%)
Language : English
Default : Yes
Forced : No

Menu
00:00:00.000 : en:00:00:00.000
00:04:09.082 : en:00:04:09.082
00:07:58.603 : en:00:07:58.603
00:12:15.652 : en:00:12:15.652
00:16:54.263 : en:00:16:54.263
00:20:53.169 : en:00:20:53.169
00:24:08.072 : en:00:24:08.072
00:29:02.240 : en:00:29:02.240
00:32:41.793 : en:00:32:41.793
00:38:01.362 : en:00:38:01.362
00:40:10.992 : en:00:40:10.992
00:43:45.248 : en:00:43:45.248
00:44:36.048 : en:00:44:36.048

File name Size
doctor.who.2005.s02e01.720p.bluray.x264-shortbrehd.mkv 2.18 GB
doctor.who.2005.s02e02.720p.bluray.x264-shortbrehd.mkv 2.18 GB
doctor.who.2005.s02e03.720p.bluray.x264-shortbrehd.mkv 2.18 GB
doctor.who.2005.s02e04.720p.bluray.x264-shortbrehd.mkv 2.18 GB
doctor.who.2005.s02e05.720p.bluray.x264-shortbrehd.mkv 2.18 GB
doctor.who.2005.s02e06.720p.bluray.x264-shortbrehd.mkv 2.18 GB
doctor.who.2005.s02e07.720p.bluray.x264-shortbrehd.mkv 2.18 GB
doctor.who.2005.s02e08.720p.bluray.x264-shortbrehd.mkv 2.18 GB
doctor.who.2005.s02e09.720p.bluray.x264-shortbrehd.mkv 2.18 GB
doctor.who.2005.s02e10.720p.bluray.x264-shortbrehd.mkv 2.18 GB
doctor.who.2005.s02e11.720p.bluray.x264-shortbrehd.mkv 2.18 GB
doctor.who.2005.s02e12.720p.bluray.x264-shortbrehd.mkv 2.18 GB
doctor.who.2005.s02e13.720p.bluray.x264-shortbrehd.mkv 2.18 GB

Screenshot:

Sign up via clicking banner and a file link to creat a premium account.Then Get the access to protected links.

ExtMatrix Download Links

doctor.who.2005.s02e01.720p.bluray.x264-shortbrehd.mkv
doctor.who.2005.s02e02.720p.bluray.x264-shortbrehd.mkv
doctor.who.2005.s02e03.720p.bluray.x264-shortbrehd.mkv
doctor.who.2005.s02e04.720p.bluray.x264-shortbrehd.mkv
doctor.who.2005.s02e05.720p.bluray.x264-shortbrehd.mkv
doctor.who.2005.s02e07.720p.bluray.x264-shortbrehd.mkv
doctor.who.2005.s02e06.720p.bluray.x264-shortbrehd.mkv
doctor.who.2005.s02e08.720p.bluray.x264-shortbrehd.mkv
doctor.who.2005.s02e09.720p.bluray.x264-shortbrehd.mkv
doctor.who.2005.s02e10.720p.bluray.x264-shortbrehd.mkv
doctor.who.2005.s02e11.720p.bluray.x264-shortbrehd.mkv
doctor.who.2005.s02e12.720p.bluray.x264-shortbrehd.mkv
doctor.who.2005.s02e13.720p.bluray.x264-shortbrehd.mkv