External Links:   

General
Complete name : doctor.who.2005.s03e08.720p.bluray.x264-shortbrehd.mkv
Format : Matroska
Format version : Version 2
File size : 2.18 GiB
Duration : 47mn 14s
Overall bit rate : 6 618 Kbps

Video
ID : 1
Format : AVC
Format/Info : Advanced Video Codec
Format profile : High@L4.1
Format settings, CABAC : Yes
Format settings, ReFrames : 5 frames
Codec ID : V_MPEG4/ISO/AVC
Duration : 47mn 14s
Bit rate : 5 106 Kbps
Width : 1 264 pixels
Height : 720 pixels
Display aspect ratio : 16:9
Frame rate mode : Constant
Frame rate : 23.976 fps
Color space : YUV
Chroma subsampling : 4:2:0
Bit depth : 8 bits
Scan type : Progressive
Bits/(Pixel*Frame) : 0.234
Stream size : 1.64 GiB (75%)
Writing library : x264 core 138 r2358 9e941d1
Encoding settings : cabac=1 / ref=5 / deblock=1:-2:-2 / analyse=0x3:0x113 / me=umh / subme=8 / psy=1 /

Audio
ID : 2
Format : DTS
Format/Info : Digital Theater Systems
Mode : 16
Format settings, Endianness : Big
Codec ID : A_DTS
Duration : 47mn 14s
Bit rate mode : Constant
Bit rate : 1 509 Kbps
Channel(s) : 6 channels
Channel positions : Front: L C R, Side: L R, LFE
Sampling rate : 48.0 KHz
Bit depth : 24 bits
Compression mode : Lossy
Stream size : 510 MiB (23%)
Language : English
Default : Yes
Forced : No

Menu
00:00:00.000 : en:00:00:00.000
00:05:04.679 : en:00:05:04.679
00:10:21.996 : en:00:10:21.996
00:12:46.933 : en:00:12:46.933
00:18:27.315 : en:00:18:27.315
00:22:54.123 : en:00:22:54.123
00:25:23.856 : en:00:25:23.856
00:28:27.372 : en:00:28:27.372
00:33:51.863 : en:00:33:51.863
00:38:05.492 : en:00:38:05.492
00:40:10.825 : en:00:40:10.825
00:45:34.857 : en:00:45:34.857
00:46:25.866 : en:00:46:25.866

File name Size
doctor.who.2005.s03e01.720p.bluray.x264-shortbrehd.mkv 2.18 GB
doctor.who.2005.s03e02.720p.bluray.x264-shortbrehd.mkv 2.18 GB
doctor.who.2005.s03e03.720p.bluray.x264-shortbrehd.mkv 2.18 GB
doctor.who.2005.s03e04.720p.bluray.x264-shortbrehd.mkv 2.18 GB
doctor.who.2005.s03e05.720p.bluray.x264-shortbrehd.mkv 2.18 GB
doctor.who.2005.s03e06.720p.bluray.x264-shortbrehd.mkv 2.18 GB
doctor.who.2005.s03e07.720p.bluray.x264-shortbrehd.mkv 2.18 GB
doctor.who.2005.s03e08.720p.bluray.x264-shortbrehd.mkv 2.18 GB
doctor.who.2005.s03e09.720p.bluray.x264-shortbrehd.mkv 2.18 GB
doctor.who.2005.s03e10.720p.bluray.x264-shortbrehd.mkv 2.18 GB
doctor.who.2005.s03e11.720p.bluray.x264-shortbrehd.mkv 2.18 GB
doctor.who.2005.s03e12.720p.bluray.x264-shortbrehd.mkv 2.18 GB
doctor.who.2005.s03e13.720p.bluray.x264-shortbrehd.mkv 2.18 GB
File name Size
doctor.who.2005.s04e01.720p.bluray.x264-shortbrehd.mkv 2.18 GB
doctor.who.2005.s04e02.720p.bluray.x264-shortbrehd.mkv 2.18 GB
doctor.who.2005.s04e03.720p.bluray.x264-shortbrehd.mkv 2.18 GB
doctor.who.2005.s04e04.720p.bluray.x264-shortbrehd.mkv 2.18 GB
doctor.who.2005.s04e05.720p.bluray.x264-shortbrehd.mkv 2.18 GB
doctor.who.2005.s04e06.720p.bluray.x264-shortbrehd.mkv 2.18 GB
doctor.who.2005.s04e07.720p.bluray.x264-shortbrehd.mkv 2.18 GB
doctor.who.2005.s04e08.720p.bluray.x264-shortbrehd.mkv 2.18 GB
doctor.who.2005.s04e09.720p.bluray.x264-shortbrehd.mkv 2.18 GB
doctor.who.2005.s04e10.720p.bluray.x264-shortbrehd.mkv 2.18 GB
doctor.who.2005.s04e11.720p.bluray.x264-shortbrehd.mkv 2.18 GB
doctor.who.2005.s04e12.720p.bluray.x264-shortbrehd.mkv 2.18 GB
doctor.who.2005.s04e13.720p.bluray.x264-shortbrehd.mkv 2.65 GB

Screenshot:

Sign up via clicking banner and a file link to creat a premium account.Then Get the access to protected links.

ExtMatrix Download Links

doctor.who.2005.s03e01.720p.bluray.x264-shortbrehd.mkv
doctor.who.2005.s03e02.720p.bluray.x264-shortbrehd.mkv
doctor.who.2005.s03e03.720p.bluray.x264-shortbrehd.mkv
doctor.who.2005.s03e04.720p.bluray.x264-shortbrehd.mkv
doctor.who.2005.s03e05.720p.bluray.x264-shortbrehd.mkv
doctor.who.2005.s03e06.720p.bluray.x264-shortbrehd.mkv
doctor.who.2005.s03e07.720p.bluray.x264-shortbrehd.mkv
doctor.who.2005.s03e08.720p.bluray.x264-shortbrehd.mkv
doctor.who.2005.s03e09.720p.bluray.x264-shortbrehd.mkv
doctor.who.2005.s03e10.720p.bluray.x264-shortbrehd.mkv
doctor.who.2005.s03e11.720p.bluray.x264-shortbrehd.mkv
doctor.who.2005.s03e12.720p.bluray.x264-shortbrehd.mkv
doctor.who.2005.s03e13.720p.bluray.x264-shortbrehd.mkv
doctor.who.2005.s04e01.720p.bluray.x264-shortbrehd.mkv
doctor.who.2005.s04e02.720p.bluray.x264-shortbrehd.mkv
doctor.who.2005.s04e03.720p.bluray.x264-shortbrehd.mkv
doctor.who.2005.s04e04.720p.bluray.x264-shortbrehd.mkv
doctor.who.2005.s04e05.720p.bluray.x264-shortbrehd.mkv
doctor.who.2005.s04e06.720p.bluray.x264-shortbrehd.mkv
doctor.who.2005.s04e07.720p.bluray.x264-shortbrehd.mkv
doctor.who.2005.s04e08.720p.bluray.x264-shortbrehd.mkv
doctor.who.2005.s04e09.720p.bluray.x264-shortbrehd.mkv
doctor.who.2005.s04e10.720p.bluray.x264-shortbrehd.mkv
doctor.who.2005.s04e11.720p.bluray.x264-shortbrehd.mkv
doctor.who.2005.s04e12.720p.bluray.x264-shortbrehd.mkv
doctor.who.2005.s04e13.720p.bluray.x264-shortbrehd.mkv