External Links:   

General
Complete name : Doctor.Who.S06E09.720p.BluRay.DTS.x264-CtrlHD.mkv
Format : Matroska
Format version : Version 2
File size : 4.27 GiB
Duration : 42mn 38s
Overall bit rate : 14.3 Mbps

Video
ID : 1
Format : AVC
Format/Info : Advanced Video Codec
Format profile : High@L4.1
Format settings, CABAC : Yes
Format settings, ReFrames : 9 frames
Codec ID : V_MPEG4/ISO/AVC
Duration : 42mn 38s
Bit rate : 12.5 Mbps
Width : 1 280 pixels
Height : 720 pixels
Display aspect ratio : 16:9
Frame rate mode : Constant
Frame rate : 25.000 fps
Color space : YUV
Chroma subsampling : 4:2:0
Bit depth : 8 bits
Scan type : Progressive
Bits/(Pixel*Frame) : 0.545
Stream size : 3.74 GiB (87%)
Writing library : x264 core 129 r2230 1cffe9f
Encoding settings : cabac=1 / ref=9 / deblock=1:-3:-3 / analyse=0x3:0x133 / me=umh / subme=10 / psy=1 /

Audio
ID : 2
Format : DTS
Format/Info : Digital Theater Systems
Mode : 16
Format settings, Endianness : Big
Codec ID : A_DTS
Duration : 42mn 38s
Bit rate mode : Constant
Bit rate : 1 509 Kbps
Channel(s) : 6 channels
Channel positions : Front: L C R, Side: L R, LFE
Sampling rate : 48.0 KHz
Bit depth : 24 bits
Compression mode : Lossy
Stream size : 460 MiB (11%)
Language : English
Default : No
Forced : No

Text #1
ID : 3
Format : PGS
Muxing mode : zlib
Codec ID : S_HDMV/PGS
Codec ID/Info : The same subtitle format used on BDs/HD-DVDs
Title : PGS/SUP
Language : English
Default : Yes
Forced : No

Text #2
ID : 4
Format : UTF-8
Codec ID : S_TEXT/UTF8
Codec ID/Info : UTF-8 Plain Text
Language : English
Default : No
Forced : No

Text #3
ID : 5
Format : UTF-8
Codec ID : S_TEXT/UTF8
Codec ID/Info : UTF-8 Plain Text
Title : SDH
Language : English
Default : No
Forced : No

Menu
00:00:00.000 : en:00:00:00.000
00:04:23.640 : en:00:04:23.640
00:06:13.880 : en:00:06:13.880
00:10:53.720 : en:00:10:53.720
00:16:12.560 : en:00:16:12.560
00:19:15.440 : en:00:19:15.440
00:23:29.720 : en:00:23:29.720
00:28:36.640 : en:00:28:36.640
00:33:39.320 : en:00:33:39.320
00:35:41.920 : en:00:35:41.920
00:39:29.640 : en:00:39:29.640
00:42:00.360 : en:00:42:00.360

File Name Size
Doctor.Who.2005.S05E01.720p.BluRay.DTS5.1.x264 CtrlHD.mkv 5.31 GB
Doctor.Who.2005.S05E02.720p.BluRay.DTS5.1.x264 CtrlHD.mkv 4.12 GB
Doctor.Who.2005.S05E03.720p.BluRay.DTS5.1.x264 CtrlHD.mkv 3.97 GB
Doctor.Who.2005.S05E04.720p.BluRay.DTS5.1.x264 CtrlHD.mkv 3.28 GB
Doctor.Who.2005.S05E05.720p.BluRay.DTS5.1.x264 CtrlHD.mkv 3.52 GB
Doctor.Who.2005.S05E06.720p.BluRay.DTS5.1.x264 CtrlHD.mkv 4.15 GB
Doctor.Who.2005.S05E07.720p.BluRay.DTS5.1.x264 CtrlHD.mkv 3.16 GB
Doctor.Who.2005.S05E08.720p.BluRay.DTS5.1.x264 CtrlHD.mkv 3.52 GB
Doctor.Who.2005.S05E09.720p.BluRay.DTS5.1.x264 CtrlHD.mkv 4.02 GB
Doctor.Who.2005.S05E10.720p.BluRay.DTS5.1.x264 CtrlHD.mkv 4.05 GB
Doctor.Who.2005.S05E11.720p.BluRay.DTS5.1.x264 CtrlHD.mkv 2.57 GB
Doctor.Who.2005.S05E12.720p.BluRay.DTS5.1.x264 CtrlHD.mkv 5.69 GB
Doctor.Who.2005.S05E13.720p.BluRay.DTS5.1.x264 CtrlHD.mkv 4.84 GB
File Name Size
Doctor.Who.S06E01.720p.BluRay.DTS.x264 CtrlHD.mkv 4.63 GB
Doctor.Who.S06E02.720p.BluRay.DTS.x264 CtrlHD.mkv 5.42 GB
Doctor.Who.S06E03.720p.BluRay.DTS.x264 CtrlHD.mkv 4.54 GB
Doctor.Who.S06E04.720p.BluRay.DTS.x264 CtrlHD.mkv 4.23 GB
Doctor.Who.S06E05.720p.BluRay.DTS.x264 CtrlHD.mkv 4.69 GB
Doctor.Who.S06E06.720p.BluRay.DTS.x264 CtrlHD.mkv 5.47 GB
Doctor.Who.S06E07.720p.BluRay.DTS.x264 CtrlHD.mkv 4.98 GB
Doctor.Who.S06E08.720p.BluRay.DTS.x264 CtrlHD.mkv 4.55 GB
Doctor.Who.S06E09.720p.BluRay.DTS.x264 CtrlHD.mkv 4.27 GB
Doctor.Who.S06E10.720p.BluRay.DTS.x264 CtrlHD.mkv 3.28 GB
Doctor.Who.S06E11.720p.BluRay.DTS.x264 CtrlHD.mkv 4.78 GB
Doctor.Who.S06E12.720p.BluRay.DTS.x264 CtrlHD.mkv 5.50 GB
Doctor.Who.S06E13.720p.BluRay.DTS.x264 CtrlHD.mkv 4.16 GB

Screenshot:

Sign up via clicking banner and a file link to creat a premium account.Then Get the access to protected links.

ExtMatrix Download Links

Doctor.Who.2005.S05E01.720p.BluRay.DTS5.1.x264-CtrlHD.mkv

Click Here for downloading links Doctor Who S05 S06 Complete 720p BluRay DTS x264 CtrlHD