Also Known As (AKA)
Don Jon’s Addiction
Includes itunes extras:
themes.mkv 168.01 MB
objectified.mkv 156.74 MB
makingof.mkv 202.19 MB
joehat.mkv 151.88 MB
hitvinegar.mkv 73.62 MB
hitrequest.mkv 134.61 MB
hitremixnotitle.mkv 114.26 MB
hitremixloveofobjects.mkv 35.24 MB
hitremixfilmpreservation.mkv 42.05 MB
donjonorigin.mkv 220.06 MB
Useful link:

MediaInfo:
General
Complete name : Don.Jon.2013.1080p.WEB-DL.DD5.1.H.264.HKD.mkv
Format : Matroska
Format version : Version 4 / Version 2
File size : 2.91 GiB
Duration : 1h 30mn
Overall bit rate : 4 617 Kbps
Movie name : ripped by CrazyHDSource.com

Video
ID : 1
Format : AVC
Format/Info : Advanced Video Codec
Format profile : High@L4.0
Format settings, CABAC : Yes
Format settings, ReFrames : 5 frames
Codec ID : V_MPEG4/ISO/AVC
Duration : 1h 30mn
Bit rate : 4 141 Kbps
Width : 1 912 pixels
Height : 788 pixels
Display aspect ratio : 2.40:1
Frame rate mode : Constant
Frame rate : 23.976 fps
Color space : YUV
Chroma subsampling : 4:2:0
Bit depth : 8 bits
Scan type : Progressive
Bits/(Pixel*Frame) : 0.115
Stream size : 2.61 GiB (90%)
Title : ripped by CrazyHDSource.com
Language : English
Default : Yes
Forced : No
Color primaries : BT.709
Transfer characteristics : BT.709
Matrix coefficients : BT.709

Audio
ID : 2
Format : AC-3
Format/Info : Audio Coding 3
Mode extension : CM (complete main)
Format settings, Endianness : Big
Codec ID : A_AC3
Duration : 1h 30mn
Bit rate mode : Constant
Bit rate : 384 Kbps
Channel(s) : 6 channels
Channel positions : Front: L C R, Side: L R, LFE
Sampling rate : 48.0 KHz
Bit depth : 16 bits
Compression mode : Lossy
Stream size : 248 MiB (8%)
Language : English
Default : Yes
Forced : No

Text #1
ID : 3
Format : UTF-8
Codec ID : S_TEXT/UTF8
Codec ID/Info : UTF-8 Plain Text
Language : Spanish,English

Menu
00:00:00.000 : en:Chapter 01
00:07:05.000 : en:Chapter 02
00:14:20.000 : en:Chapter 03
00:22:18.000 : en:Chapter 04
00:30:06.000 : en:Chapter 05
00:39:31.000 : en:Chapter 06
00:46:45.000 : en:Chapter 07
00:55:53.000 : en:Chapter 08
01:05:12.000 : en:Chapter 09
01:14:43.000 : en:Chapter 10
01:24:09.000 : en:Chapter 11

Screenshot:

Sign up via clicking banner and a file link to creat a premium account.Then Get the access to protected links.

ExtMatrix Download Links

hitremixfilmpreservation.mkv
joehat.mkv

Click Here for downloading linksĀ Don Jon 2013 1080p WEB-DL DD5 1 H 264 HKD