External Links:

General
Complete name : Dracula.2013.S01E06.1080p.WEB-DL.DD5.1.H.264.HKD.mkv
Format : Matroska
Format version : Version 4 / Version 2
File size : 1.54 GiB
Duration : 42mn 37s
Overall bit rate : 5 173 Kbps
Movie name : ripped by CrazyHDSource.com

Video
ID : 1
Format : AVC
Format/Info : Advanced Video Codec
Format profile : High@L4.0
Format settings, CABAC : Yes
Format settings, ReFrames : 4 frames
Codec ID : V_MPEG4/ISO/AVC
Duration : 42mn 37s
Bit rate : 4 686 Kbps
Width : 1 920 pixels
Height : 1 080 pixels
Display aspect ratio : 16:9
Frame rate mode : Constant
Frame rate : 25.000 fps
Color space : YUV
Chroma subsampling : 4:2:0
Bit depth : 8 bits
Scan type : Progressive
Bits/(Pixel*Frame) : 0.090
Stream size : 1.40 GiB (91%)
Title : ripped by CrazyHDSource.com
Language : English
Default : Yes
Forced : No
Color primaries : BT.709
Transfer characteristics : BT.709
Matrix coefficients : BT.709

Audio
ID : 2
Format : AC-3
Format/Info : Audio Coding 3
Mode extension : CM (complete main)
Format settings, Endianness : Big
Codec ID : A_AC3
Duration : 42mn 37s
Bit rate mode : Constant
Bit rate : 384 Kbps
Channel(s) : 6 channels
Channel positions : Front: L C R, Side: L R, LFE
Sampling rate : 48.0 KHz
Bit depth : 16 bits
Compression mode : Lossy
Stream size : 117 MiB (7%)
Language : English
Default : Yes
Forced : No

Text
ID : 3
Format : UTF-8
Codec ID : S_TEXT/UTF8
Codec ID/Info : UTF-8 Plain Text
Language : English
Default : No
Forced : No

File name Size
Dracula.S01E01.PROPER.720p.WEB-DL.DD5.1.H.264-KiNGS.mkv 1.36 GB
Dracula.S01E02.720p.WEB-DL.DD5.1.H.264-KiNGS.mkv 1.37 GB
Dracula.S01E03.720p.WEB-DL.DD5.1.H.264-KiNGS.mkv 1.27 GB
Dracula.S01E04.720p.WEB-DL.DD5.1.H.264-KiNGS.mkv 1.29 GB
Dracula.S01E05.720p.WEB-DL.DD5.1.H.264-KiNGS.mkv 1.29 GB
Dracula.S01E06.720p.WEB-DL.DD5.1.H.264-KiNGS.mkv 1.29 GB
Dracula.S01E07.720p.WEB-DL.DD5.1.H.264-KiNGS.mkv 1.28 GB
Dracula.S01E08.720p.WEB-DL.DD5.1.H.264-KiNGS.mkv 1.35 GB
Dracula.S01E09.720p.WEB-DL.DD5.1.H.264-KiNGS.mkv 1.27 GB
Dracula.S01E10.720p.WEB-DL.DD5.1.H.264-KiNGS.mkv 1.31 GB
File name Size
Dracula.S01E01.PROPER.1080p.WEB-DL.DD5.1.H.264-KiNGS.mkv 1.68 GB
Dracula.S01E02.1080p.WEB-DL.DD5.1.H.264-HKD.mkv 1.68 GB
Dracula.S01E03.1080p.WEB-DL.DD5.1.H.264-HKD.mkv 1.57 GB
Dracula.S01E04.1080p.WEB-DL.DD5.1.H.264-HKD.mkv 1.54 GB
Dracula.S01E05.1080p.WEB-DL.DD5.1.H.264-HKD.mkv 1.54 GB
Dracula.S01E06.1080p.WEB-DL.DD5.1.H.264-HKD.mkv 1.54 GB
Dracula.S01E07.1080p.WEB-DL.DD5.1.H.264-HKD.mkv 1.65 GB
Dracula.S01E08.1080p.WEB-DL.DD5.1.H.264-HKD.mkv 1.58 GB
Dracula.S01E09.1080p.WEB-DL.DD5.1.H.264-HKD.mkv 1.55 GB
Dracula.S01E10.1080p.WEB-DL.DD5.1.H.264-HKD.mkv 1.59 GB

Screenshot:

Sign up via clicking banner and a file link to creat a premium account.Then Get the access to protected links.

ExtMatrix Download Links

Dracula.2013.S01E02.1080p.WEB-DL.DD5.1.H.264.HKD.part1.rar
Dracula.2013.S01E02.1080p.WEB-DL.DD5.1.H.264.HKD.part2.rar
Dracula.2013.S01E03.1080p.WEB-DL.DD5.1.H.264.HKD.part1.rar
Dracula.2013.S01E03.1080p.WEB-DL.DD5.1.H.264.HKD.part2.rar
Dracula.2013.S01E04.1080p.WEB-DL.DD5.1.H.264.HKD.part1.rar
Dracula.2013.S01E04.1080p.WEB-DL.DD5.1.H.264.HKD.part2.rar
Dracula.2013.S01E07.1080p.WEB-DL.DD5.1.H.264.HKD.part1.rar
Dracula.2013.S01E07.1080p.WEB-DL.DD5.1.H.264.HKD.part2.rar
Dracula.2013.S01E08.1080p.WEB-DL.DD5.1.H.264.HKD.part2.rar
Dracula.2013.S01E10.1080p.WEB-DL.DD5.1.H.264.HKD.part1.rar
Dracula.2013.S01E10.1080p.WEB-DL.DD5.1.H.264.HKD.part2.rar