External Links:

General
Complete name : Drop.Dead.Diva.S05E02.The.Real.Jane.1080p.WEB-DL.DD5.1.H.264-BS.mkv
Format : Matroska
Format version : Version 2
File size : 1.66 GiB
Duration : 42mn 43s
Overall bit rate : 5 564 Kbps
Writing application : mkvmerge v5.8.0 (‘No Sleep / Pillow’) built on Sep 2 2012 15:37:04
Writing library : libebml v1.2.3 + libmatroska v1.3.0

Video
ID : 1
Format : AVC
Format/Info : Advanced Video Codec
Format profile : High@L4.0
Format settings, CABAC : Yes
Format settings, ReFrames : 4 frames
Codec ID : V_MPEG4/ISO/AVC
Duration : 42mn 43s
Bit rate : 5 069 Kbps
Width : 1 916 pixels
Height : 1 076 pixels
Display aspect ratio : 16:9
Frame rate mode : Constant
Frame rate : 23.976 fps
Color space : YUV
Chroma subsampling : 4:2:0
Bit depth : 8 bits
Scan type : Progressive
Bits/(Pixel*Frame) : 0.103
Stream size : 1.51 GiB (91%)
Language : English
Default : Yes
Forced : No
Color primaries : BT.709
Transfer characteristics : BT.709
Matrix coefficients : BT.709

Audio
ID : 2
Format : AC-3
Format/Info : Audio Coding 3
Mode extension : CM (complete main)
Format settings, Endianness : Big
Codec ID : A_AC3
Duration : 42mn 43s
Bit rate mode : Constant
Bit rate : 384 Kbps
Channel(s) : 6 channels
Channel positions : Front: L C R, Side: L R, LFE
Sampling rate : 48.0 KHz
Bit depth : 16 bits
Compression mode : Lossy
Stream size : 117 MiB (7%)
Language : English
Default : Yes
Forced : No

Text
ID : 3
Format : UTF-8
Codec ID : S_TEXT/UTF8
Codec ID/Info : UTF-8 Plain Text
Title : CC
Language : English
Default : Yes
Forced : No

Screenshot:

Sign up via clicking banner and a file link to creat a premium account.

ExtMatrix Download Links

Drop.Dead.Diva.S06E01.Truth.&.Consequences.1080p.WEB-DL.DD5.1.H.264-BS.mkv
Drop.Dead.Diva.S06E01.Truth.&.Consequences.720p.WEB-DL.DD5.1.H.264-BS.mkv
Drop.Dead.Diva.S06E02.Soulmates.720p.WEB-DL.DD5.1.H.264-BS.mkv
Drop.Dead.Diva.S06E03.First.Date.720p.WEB-DL.DD5.1.H.264-BS.mkv
Drop.Dead.Diva.S06E04.Life.and.Death.720p.WEB-DL.DD5.1.H.264-BS.mkv
Drop.Dead.Diva.S06E05.Cheers.&.Jeers.720p.WEB-DL.DD5.1.H.264-BS.mkv
Drop.Dead.Diva.S06E05.Cheers.&.Jeers.1080p.WEB-DL.DD5.1.H.264-BS.mkv
Drop.Dead.Diva.S06E06.Desperate.Housewife.720p.WEB-DL.DD5.1.H.264-BS.mkv
Drop.Dead.Diva.S06E06.Desperate.Housewife.1080p.WEB-DL.DD5.1.H.264-BS.mkv
Drop.Dead.Diva.S06E07.Sister.Act.720p.WEB-DL.DD5.1.H.264-BS.mkv
Drop.Dead.Diva.S06E08.Identity.Crisis.720p.WEB-DL.DD5.1.H.264-BS.mkv
Drop.Dead.Diva.S06E09.Hope.and.Glory.720p.WEB-DL.DD5.1.H.264-BS.mkv