External Links:

General
Complete name : Eagleheart.S03E02.Whitley.1080p.WEB-DL.DD5.1.H.264-BS.mkv
Format : Matroska
Format version : Version 2
File size : 387 MiB
Duration : 11mn 18s
Overall bit rate : 4 790 Kbps

Video
ID : 1
Format : AVC
Format/Info : Advanced Video Codec
Format profile : High@L4.0
Format settings, CABAC : Yes
Format settings, ReFrames : 4 frames
Codec ID : V_MPEG4/ISO/AVC
Duration : 11mn 18s
Bit rate : 4 310 Kbps
Width : 1 920 pixels
Height : 960 pixels
Display aspect ratio : 2.000
Frame rate mode : Constant
Frame rate : 23.976 fps
Color space : YUV
Chroma subsampling : 4:2:0
Bit depth : 8 bits
Scan type : Progressive
Bits/(Pixel*Frame) : 0.098
Stream size : 348 MiB (90%)
Language : English
Default : Yes
Forced : No
Color primaries : BT.709
Transfer characteristics : BT.709
Matrix coefficients : BT.709

Audio
ID : 2
Format : AC-3
Format/Info : Audio Coding 3
Mode extension : CM (complete main)
Format settings, Endianness : Big
Codec ID : A_AC3
Duration : 11mn 18s
Bit rate mode : Constant
Bit rate : 384 Kbps
Channel(s) : 6 channels
Channel positions : Front: L C R, Side: L R, LFE
Sampling rate : 48.0 KHz
Bit depth : 16 bits
Compression mode : Lossy
Stream size : 31.0 MiB (8%)
Language : English
Default : Yes
Forced : No

Text
ID : 3
Format : UTF-8
Codec ID : S_TEXT/UTF8
Codec ID/Info : UTF-8 Plain Text
Title : CC
Language : English
Default : No
Forced : No

Screenshot:

Sign up via clicking banner and a file link to creat a premium account.Then Get the access to protected links.

ExtMatrix Download Links

Eagleheart.S03E02.Whitley.1080p.WEB-DL.DD5.1.H.264-BS.mkv
Eagleheart.S03E01.Moss.1080p.WEB-DL.DD5.1.H.264-BS.mkv
Eagleheart.S03E03.Bowsley.1080p.WEB-DL.DD5.1.H.264-BS.mkv
Eagleheart.S03E04.Grandy.1080p.WEB-DL.DD5.1.H.264-BS.mkv
Eagleheart.S03E05.America.1080p.WEB-DL.DD5.1.H.264-BS.mkv
Eagleheart.S03E06.Joe.1080p.WEB-DL.DD5.1.H.264-BS.mkv
Eagleheart.S03E07.Quint.1080p.WEB-DL.DD5.1.H.264-BS.mkv
Eagleheart.S03E08.Spats.1080p.WEB-DL.DD5.1.H.264-BS.mkv
Eagleheart.S03E09.Gribbs.1080p.WEB-DL.DD5.1.H.264-BS.mkv
Eagleheart.S03E10.Honch.1080p.WEB-DL.DD5.1.H.264-BS.mkv