Useful link:

MediaInfo:

Better Source:Eden.Lake.2008.BluRay.1080p.AVC.DTS-HD.MA.5.1
General
Complete name : Eden.Lake.2008.720p.BluRay.AC3.x264-AJP
Format : Matroska
Format version : Version 1
File size : 5.36 GiB
Duration : 1h 30mn
Overall bit rate : 8 442 Kbps

Video
ID : 1
Format : AVC
Format/Info : Advanced Video Codec
Format profile : High@L4.1
Format settings, CABAC : Yes
Format settings, ReFrames : 8 frames
Codec ID : V_MPEG4/ISO/AVC
Duration : 1h 30mn
Bit rate : 7 800 Kbps
Width : 1 280 pixels
Height : 540 pixels
Display aspect ratio : 2.40:1
Frame rate mode : Constant
Frame rate : 24.000 fps
Color space : YUV
Chroma subsampling : 4:2:0
Bit depth : 8 bits
Scan type : Progressive
Bits/(Pixel*Frame) : 0.470
Stream size : 4.85 GiB (90%)
Writing library : x264 core 67 r1127M 8d82fec
Encoding settings : cabac=1 / ref=8 / deblock=1:-2:-2 / analyse=0x3:0x133 / me=tesa / subme=9 /

Audio
ID : 2
Format : AC-3
Format/Info : Audio Coding 3
Mode extension : CM (complete main)
Format settings, Endianness : Big
Codec ID : A_AC3
Duration : 1h 30mn
Bit rate mode : Constant
Bit rate : 640 Kbps
Channel(s) : 6 channels
Channel positions : Front: L C R, Side: L R, LFE
Sampling rate : 48.0 KHz
Bit depth : 16 bits
Compression mode : Lossy
Stream size : 416 MiB (8%)
Title : English (AC3)
Language : English
Default : Yes
Forced : No

Text
Format : UTF-8
Codec ID : S_TEXT/UTF8
Codec ID/Info : UTF-8 Plain Text
Language : Estonian,English,Finnish,Greek,Hungarian,Slovenian,Spanish,Swedish,Czech

Screenshot:

Sign up via clicking banner and a file link to creat a premium account.Then Get the access to protected links.

ExtMatrix Download Links

Eden.Lake.2008.720p.BluRay.AC3.x264-AJP.mkv