External Links:

General
Complete name : Elementary.S02E01.1080p.WEB-DL.DD5.1.H.264.HKD.mkv
Format : Matroska
Format version : Version 4 / Version 2
File size : 1.60 GiB
Duration : 43mn 18s
Overall bit rate : 5 299 Kbps
Movie name : ripped by CrazyHDSource.com

Video
ID : 1
Format : AVC
Format/Info : Advanced Video Codec
Format profile : High@L4.0
Format settings, CABAC : Yes
Format settings, ReFrames : 4 frames
Codec ID : V_MPEG4/ISO/AVC
Duration : 43mn 18s
Bit rate : 4 809 Kbps
Width : 1 920 pixels
Height : 1 080 pixels
Display aspect ratio : 16:9
Frame rate mode : Constant
Frame rate : 23.976 fps
Color space : YUV
Chroma subsampling : 4:2:0
Bit depth : 8 bits
Scan type : Progressive
Bits/(Pixel*Frame) : 0.097
Stream size : 1.46 GiB (91%)
Title : ripped by CrazyHDSource.com
Language : English
Default : Yes
Forced : No
Color primaries : BT.709
Transfer characteristics : BT.709
Matrix coefficients : BT.709

Audio
ID : 2
Format : AC-3
Format/Info : Audio Coding 3
Mode extension : CM (complete main)
Format settings, Endianness : Big
Codec ID : A_AC3
Duration : 43mn 18s
Bit rate mode : Constant
Bit rate : 384 Kbps
Channel(s) : 6 channels
Channel positions : Front: L C R, Side: L R, LFE
Sampling rate : 48.0 KHz
Bit depth : 16 bits
Compression mode : Lossy
Stream size : 119 MiB (7%)
Language : English
Default : Yes
Forced : No

Text
ID : 3
Format : UTF-8
Codec ID : S_TEXT/UTF8
Codec ID/Info : UTF-8 Plain Text
Language : English
Default : No
Forced : No

Elementary.S02.Season.1.Recap.1080p.WEB-DL.AAC2.0.H.264-HKD.mkv 185.24 MB

Screenshot:

Sign up via clicking banner and a file link to creat a premium account.Then Get the access to protected links.

ExtMatrix Download Links

Elementary.S02.Season.1.Recap.1080p.WEB-DL.AAC2.0.H.264-HKD.mkv
Elementary.S02E01.Step.Nine.720p.WEB-DL.DD5.1.H.264-ECI.mkv
Elementary.S02E02.Solve.For.X.720p.WEB-DL.DD5.1.H.264-ECI.mkv
Elementary.S02E03.We.Are.Everyone.720p.WEB-DL.DD5.1.H.264-ECI.mkv
Elementary.S02E04.Poison.Pen.720p.WEB-DL.DD5.1.H.264-ECI.mkv
Elementary.S02E05.Ancient.History.720p.WEB-DL.DD5.1.H.264-ECI.mkv
Elementary.S02E06.An.Unnatural.Arrangement.720p.WEB-DL.DD5.1.H.264-ECI.mkv
Elementary.S02E07.The.Marchioness.720p.WEB-DL.DD5.1.H.264-ECI.mkv
Elementary.S02E08.Blood.Is.Thicker.720p.WEB-DL.DD5.1.H.264-ECI.mkv
Elementary.S02E09.On.The.Line.720p.WEB-DL.DD5.1.H.264-ECI.mkv
Elementary.S02E10.Tremors.720p.WEB-DL.DD5.1.H.264-ECI.mkv
Elementary.S02E10.1080p.WEB-DL.DD5.1.H.264.HKD.part1.rar
Elementary.S02E10.1080p.WEB-DL.DD5.1.H.264.HKD.part2.rar
Elementary.S02E11.Internal.Audit.720p.WEB-DL.DD5.1.H.264-ECI.mkv
Elementary.S02E12.720p.HDTV.X264-DIMENSION.mkv

Click Here for downloading links Elementary S02E01 1080p WEB-DL DD5 1 H 264 HKD

Click Here for downloading links Elementary S02E02 1080p WEB-DL DD5 1 H 264 HKD

Click Here for downloading links Elementary S02E03 1080p WEB-DL DD5 1 H 264 HKD

Click Here for downloading links Elementary S02E04 1080p WEB-DL DD5 1 H 264 HKD

Click Here for downloading links Elementary S02E05 1080p WEB-DL DD5 1 H 264 HKD

Click Here for downloading links Elementary S02E06 1080p WEB-DL DD5 1 H 264 HKD

Click Here for downloading links Elementary S02E07 1080p WEB-DL DD5 1 H 264 HKD

Click Here for downloading links Elementary S02E08 1080p WEB-DL DD5 1 H 264 HKD

Click Here for downloading links Elementary S02E09 1080p WEB-DL DD5 1 H 264 HKD

Click Here for downloading links Elementary S02E11 1080p WEB-DL DD5 1 H 264 HKD