Warning: Invalid argument supplied for foreach() in /home/wwwroot/crazyhdsource.com/wp-content/plugins/wpExtMatrixLink/wpExtMatrixLink.php on line 138

Series Info
External Links:

General
Complete name : Episodes.S03E01.On.Demand.1080i.HDTV.DD5.1.MPEG2-NTb.ts
Format : MPEG-TS
File size : 2.98 GiB
Duration : 29mn 25s
Overall bit rate mode : Variable
Overall bit rate : 14.5 Mbps

Video
ID : 17 (0x11)
Menu ID : 1 (0x1)
Format : MPEG Video
Format version : Version 2
Format profile : Main@High
Format settings, BVOP : Yes
Format settings, Matrix : Custom
Format settings, GOP : M=3, N=15
Codec ID : 2
Duration : 29mn 25s
Bit rate mode : Variable
Bit rate : 13.4 Mbps
Maximum bit rate : 13.7 Mbps
Width : 1 920 pixels
Height : 1 080 pixels
Display aspect ratio : 16:9
Frame rate : 29.970 fps
Color space : YUV
Chroma subsampling : 4:2:0
Bit depth : 8 bits
Scan type : Interlaced
Scan order : Top Field First
Compression mode : Lossy
Bits/(Pixel*Frame) : 0.216
Stream size : 2.76 GiB (92%)

Audio
ID : 20 (0x14)
Menu ID : 1 (0x1)
Format : AC-3
Format/Info : Audio Coding 3
Mode extension : CM (complete main)
Format settings, Endianness : Big
Codec ID : 129
Duration : 29mn 25s
Bit rate mode : Constant
Bit rate : 384 Kbps
Channel(s) : 6 channels
Channel positions : Front: L C R, Side: L R, LFE
Sampling rate : 48.0 KHz
Bit depth : 16 bits
Compression mode : Lossy
Stream size : 80.8 MiB (3%)

Text #1
ID : 17 (0x11)-CC1
Menu ID : 1 (0x1)
Format : EIA-608
Muxing mode : A/53 / DTVCC Transport
Muxing mode, more info : Muxed in Video #1
Duration : 29mn 25s
Bit rate mode : Constant
Stream size : 0.00 Byte (0%)

Text #2
ID : 17 (0x11)-1
Menu ID : 1 (0x1)
Format : EIA-708
Muxing mode : A/53 / DTVCC Transport
Muxing mode, more info : Muxed in Video #1
Duration : 29mn 25s
Bit rate mode : Constant
Stream size : 0.00 Byte (0%)

Text #3
ID : 17 (0x11)-2
Menu ID : 1 (0x1)
Format : EIA-708
Muxing mode : A/53 / DTVCC Transport
Muxing mode, more info : Muxed in Video #1
Duration : 29mn 25s
Bit rate mode : Constant
Stream size : 0.00 Byte (0%)

Text #4
ID : 17 (0x11)-3
Menu ID : 1 (0x1)
Format : EIA-708
Muxing mode : A/53 / DTVCC Transport
Muxing mode, more info : Muxed in Video #1
Duration : 29mn 25s
Bit rate mode : Constant
Stream size : 0.00 Byte (0%)

Screenshot:

Sign up via clicking banner and a file link to creat a premium account.

ExtMatrix Download Links