Includes itunes extras:

executingtheplan.mkv


Useful link:

MediaInfo:
General
Complete name : Escape.Plan.2013.1080p.WEB-DL.DD5.1.H.264.HKD.mkv
Format : Matroska
Format version : Version 4 / Version 2
File size : 3.58 GiB
Duration : 1h 55mn
Overall bit rate : 4 431 Kbps
Movie name : ripped by CrazyHDSource.com

Video
ID : 1
Format : AVC
Format/Info : Advanced Video Codec
Format profile : High@L4.0
Format settings, CABAC : Yes
Format settings, ReFrames : 5 frames
Codec ID : V_MPEG4/ISO/AVC
Duration : 1h 55mn
Bit rate : 3 959 Kbps
Width : 1 912 pixels
Height : 796 pixels
Display aspect ratio : 2.40:1
Frame rate mode : Constant
Frame rate : 23.976 fps
Color space : YUV
Chroma subsampling : 4:2:0
Bit depth : 8 bits
Scan type : Progressive
Bits/(Pixel*Frame) : 0.109
Stream size : 3.20 GiB (89%)
Title : ripped by CrazyHDSource.com
Language : English
Default : Yes
Forced : No
Color primaries : BT.709
Transfer characteristics : BT.709
Matrix coefficients : BT.709

Audio
ID : 2
Format : AC-3
Format/Info : Audio Coding 3
Mode extension : CM (complete main)
Format settings, Endianness : Big
Codec ID : A_AC3
Duration : 1h 55mn
Bit rate mode : Constant
Bit rate : 384 Kbps
Channel(s) : 6 channels
Channel positions : Front: L C R, Side: L R, LFE
Sampling rate : 48.0 KHz
Bit depth : 16 bits
Compression mode : Lossy
Stream size : 317 MiB (9%)
Language : English
Default : Yes
Forced : No

Text
ID : 3
Format : UTF-8
Codec ID : S_TEXT/UTF8
Codec ID/Info : UTF-8 Plain Text
Language : English
Default : No
Forced : No

Menu
00:00:00.000 : en:Chapter 1
00:06:33.000 : en:Chapter 2
00:15:41.000 : en:Chapter 3
00:19:50.000 : en:Chapter 4
00:26:22.000 : en:Chapter 5
00:33:08.000 : en:Chapter 6
00:39:14.000 : en:Chapter 7
00:45:41.000 : en:Chapter 8
00:50:07.000 : en:Chapter 9
00:58:59.000 : en:Chapter 10
01:06:45.000 : en:Chapter 11
01:13:50.000 : en:Chapter 12
01:21:04.000 : en:Chapter 13
01:27:58.000 : en:Chapter 14
01:35:35.000 : en:Chapter 15
01:42:12.000 : en:Chapter 16

Screenshot:

Sign up via clicking banner and a file link to creat a premium account.Then Get the access to protected links.

ExtMatrix Download Links

Click Here for downloading links Escape Plan 2013 1080p WEB-DL DD5 1 H 264 HKD