Series Info
# of Seasons: 10
Country: US
Air Day: Sunday
Air Time: 9:00 PM
First Aired: 1999-01-31
Rating: TV-14
Series Status: Returning Series
Runtime: 30 Minutes
Network: FOX
Classification: Animation
TVDB Rating: 8.7
External Links:

Family Guy (1999)

TV Series – TV_14 22 min – tvAnimation | tvComedy
8.5

Your rating:

-/10
Ratings: 8.5/10 from 107,208 users
Reviews: 513 user | 60 critic

In a wacky Rhode Island town, a dysfunctional family strive to cope with everyday life as they are thrown from one crazy scenario to another.

The last 3 episodes were released on DVD as “Family Guy Presents Stewie Griffin: The Untold Story”, so they were ripped as one file.

Family Guy – Untold Story.dvdrip.mkv

General
Complete name :FFamily Guy – Untold Story.dvdrip.mkv
Format : Matroska
File size : 716 MiB
Duration : 1h 24mn
Overall bit rate : 1 181 Kbps
Video
Format : AVC
Duration : 1h 24mn
Bit rate : 517 Kbps
Width : 720 pixels
Height : 576 pixels
Display aspect ratio : 4:3
Frame rate : 25.000 fps
Standard : PAL
Resolution : 8 bits
Stream size : 314 MiB (44%)
Encoding settings : cabac=1 / ref=6 / deblock=1:-2:-2 / analyse=0x3:0x133 / me=umh / subme=9 /

Audio #1
Format : AC-3
Duration : 1h 24mn
Bit rate mode : Constant
Bit rate : 448 Kbps
Channel(s) : 6 channels
Channel positions : Front: L C R, Surround: L R, LFE
Sampling rate : 48.0 KHz
Stream size : 272 MiB (38%)
Language : English

Audio #2
Format : AC-3
Duration : 1h 24mn
Bit rate mode : Constant
Bit rate : 192 Kbps
Channel(s) : 2 channels
Channel positions : L R
Sampling rate : 48.0 KHz
Stream size : 116 MiB (16%)
Language : English

Text
Format : VobSub
Language : English

Menu

Family.Guy.S04E01.NTSC.DVD.DD5.1.x264-Jason28.mkv

General
Complete name : Family.Guy.S04E01.NTSC.DVD.DD5.1.×264-Jason28.mkv
Format : Matroska
File size : 221 MiB
Duration : 21mn 59s
Overall bit rate : 1 406 Kbps

Video
Format : AVC
Duration : 21mn 57s
Bit rate : 850 Kbps
Nominal bit rate : 868 Kbps
Width : 704 pixels
Height : 480 pixels
Display aspect ratio : 4:3
Original display aspect ratio : 1.467
Frame rate : 23.976 fps
Resolution : 8 bits
Colorimetry : 4:2:0
Stream size : 133 MiB (60%)
Encoding settings : cabac=1 / ref=16 / deblock=1:1:1 / analyse=0x1:0x111 / me=umh / subme=7 /
Language : English

Audio #1
Format : AC-3
Duration : 21mn 59s
Bit rate mode : Constant
Bit rate : 448 Kbps
Channel(s) : 6 channels
Channel positions : Front: L C R, Surround: L R, LFE
Sampling rate : 48.0 KHz
Stream size : 70.4 MiB (32%)
Language : English

Audio #2
Format : Vorbis
Duration : 21mn 59s
Bit rate : 80.0 Kbps
Channel(s) : 2 channels
Sampling rate : 48.0 KHz
Stream size : 12.6 MiB (6%)

Text #1
Format : UTF-8
Text #2
Format : VobSub
Language : English

Text #3
Format : VobSub
Language : French

Text #4
Format : VobSub
Language : Spanish

Menu

 

File Name Size
Family Guy Untold Story.dvdrip.mkv 716.03 MB
Family.Guy.S04E01.NTSC.DVD.DD5.1.x264 Jason28.mkv 221.04 MB
Family.Guy.S04E02.NTSC.DVD.DD5.1.x264 Jason28.mkv 201.35 MB
Family.Guy.S04E03.NTSC.DVD.DD5.1.x264 Jason28.mkv 220.93 MB
Family.Guy.S04E04.NTSC.DVD.DD5.1.x264 Jason28.mkv 201.22 MB
Family.Guy.S04E05.NTSC.DVD.DD5.1.x264 Jason28.mkv 214.03 MB
Family.Guy.S04E06.NTSC.DVD.DD5.1.x264 Jason28.mkv 221.24 MB
Family.Guy.S04E07.NTSC.DVD.DD5.1.x264 Jason28.mkv 221.19 MB
Family.Guy.S04E08.NTSC.DVD.DD5.1.x264 Jason28.mkv 221.17 MB
Family.Guy.S04E09.NTSC.DVD.DD5.1.x264 Jason28.mkv 221.06 MB
Family.Guy.S04E10.NTSC.DVD.DD5.1.x264 Jason28.mkv 201.20 MB
Family.Guy.S04E11.NTSC.DVD.DD5.1.x264 Jason28.mkv 211.71 MB
Family.Guy.S04E12.NTSC.DVD.DD5.1.x264 Jason28.mkv 221.21 MB
Family.Guy.S04E13.NTSC.DVD.DD5.1.x264 Jason28.mkv 221.19 MB
Family.Guy.S04E14.NTSC.DVD.DD5.1.x264 Jason28.mkv 221.25 MB
Family.Guy.S04E15.NTSC.DVD.DD5.1.x264 Jason28.mkv 219.55 MB
Family.Guy.S04E16.NTSC.DVD.DD5.1.x264 Jason28.mkv 220.89 MB
Family.Guy.S04E17.NTSC.DVD.DD5.1.x264 Jason28.mkv 229.74 MB
Family.Guy.S04E18.NTSC.DVD.DD5.1.x264 Jason28.mkv 221.42 MB
Family.Guy.S04E19.NTSC.DVD.DD5.1.x264 Jason28.mkv 213.37 MB
Family.Guy.S04E20.NTSC.DVD.DD5.1.x264 Jason28.mkv 220.94 MB
Family.Guy.S04E21.NTSC.DVD.DD5.1.x264 Jason28.mkv 221.14 MB
Family.Guy.S04E22.NTSC.DVD.DD5.1.x264 Jason28.mkv 221.10 MB
Family.Guy.S04E23.NTSC.DVD.DD5.1.x264 Jason28.mkv 220.99 MB
Family.Guy.S04E24.NTSC.DVD.DD5.1.x264 Jason28.mkv 221.27 MB
Family.Guy.S04E25.NTSC.DVD.DD5.1.x264 Jason28.mkv 214.88 MB
Family.Guy.S04E26.NTSC.DVD.DD5.1.x264 Jason28.mkv 230.11 MB
Family.Guy.S04E27.NTSC.DVD.DD5.1.x264 Jason28.mkv 221.37 MB

Sign up via clicking banner and a file link to creat a premium account.Then Get the access to protected links.

ExtMatrix Download Links

Family.Guy.S04E27.NTSC.DVD.DD5.1.x264-Jason28.mkv.ra
Family.Guy.S04E26.NTSC.DVD.DD5.1.x264-Jason28.mkv.ra
Family.Guy.S04E25.NTSC.DVD.DD5.1.x264-Jason28.mkv.ra
Family.Guy.S04E24.NTSC.DVD.DD5.1.x264-Jason28.mkv.ra
Family.Guy.S04E23.NTSC.DVD.DD5.1.x264-Jason28.mkv.ra
Family.Guy.S04E22.NTSC.DVD.DD5.1.x264-Jason28.mkv.ra
Family.Guy.S04E21.NTSC.DVD.DD5.1.x264-Jason28.mkv.ra
Family.Guy.S04E20.NTSC.DVD.DD5.1.x264-Jason28.mkv.ra
Family.Guy.S04E19.NTSC.DVD.DD5.1.x264-Jason28.mkv.ra
Family.Guy.S04E18.NTSC.DVD.DD5.1.x264-Jason28.mkv.ra
Family.Guy.S04E17.NTSC.DVD.DD5.1.x264-Jason28.mkv.ra
Family.Guy.S04E16.NTSC.DVD.DD5.1.x264-Jason28.mkv.ra
Family.Guy.S04E15.NTSC.DVD.DD5.1.x264-Jason28.mkv.ra
Family.Guy.S04E14.NTSC.DVD.DD5.1.x264-Jason28.mkv.ra
Family.Guy.S04E13.NTSC.DVD.DD5.1.x264-Jason28.mkv.ra
Family.Guy.S04E12.NTSC.DVD.DD5.1.x264-Jason28.mkv.ra
Family.Guy.S04E11.NTSC.DVD.DD5.1.x264-Jason28.mkv.ra
Family.Guy.S04E10.NTSC.DVD.DD5.1.x264-Jason28.mkv.ra
Family.Guy.S04E09.NTSC.DVD.DD5.1.x264-Jason28.mkv.ra
Family.Guy.S04E08.NTSC.DVD.DD5.1.x264-Jason28.mkv.ra
Family.Guy.S04E07.NTSC.DVD.DD5.1.x264-Jason28.mkv.ra
Family.Guy.S04E06.NTSC.DVD.DD5.1.x264-Jason28.mkv.ra
Family.Guy.S04E05.NTSC.DVD.DD5.1.x264-Jason28.mkv.ra
Family.Guy.S04E04.NTSC.DVD.DD5.1.x264-Jason28.mkv.ra
Family.Guy.S04E03.NTSC.DVD.DD5.1.x264-Jason28.mkv.ra
Family.Guy.S04E02.NTSC.DVD.DD5.1.x264-Jason28.mkv.ra
Family.Guy.S04E01.NTSC.DVD.DD5.1.x264-Jason28.mkv.ra
Family.Guy.-Untold.StoryS04DVD.rar