Series Info
# of Seasons: 10
Country: US
Air Day: Sunday
Air Time: 9:00 PM
First Aired: 1999-01-31
Rating: TV-14
Series Status: Returning Series
Runtime: 30 Minutes
Network: FOX
Classification: Animation
TVDB Rating: 8.7
External Links:

Family Guy (1999)

TV Series – TV_14 22 min – tvAnimation | tvComedy
8.5

Your rating:

-/10
Ratings: 8.5/10 from 107,208 users
Reviews: 513 user | 60 critic

In a wacky Rhode Island town, a dysfunctional family strive to cope with everyday life as they are thrown from one crazy scenario to another.

 

General
Complete name : Family.Guy.S12E01.Finders.Keepers.1080p.WEB-DL.DD5.1.H.264-CtrlHD.mkv
Format : Matroska
Format version : Version 4 / Version 2
File size : 604 MiB
Duration : 21mn 34s
Overall bit rate : 3 913 Kbps

Video
ID : 1
Format : AVC
Format/Info : Advanced Video Codec
Format profile : High@L4.0
Format settings, CABAC : Yes
Format settings, ReFrames : 4 frames
Codec ID : V_MPEG4/ISO/AVC
Duration : 21mn 34s
Bit rate : 3 451 Kbps
Width : 1 912 pixels
Height : 1 072 pixels
Display aspect ratio : 16:9
Frame rate mode : Constant
Frame rate : 23.976 fps
Color space : YUV
Chroma subsampling : 4:2:0
Bit depth : 8 bits
Scan type : Progressive
Bits/(Pixel*Frame) : 0.070
Stream size : 532 MiB (88%)
Language : English
Default : Yes
Forced : No
Color primaries : BT.709
Transfer characteristics : BT.709
Matrix coefficients : BT.709

Audio
ID : 2
Format : AC-3
Format/Info : Audio Coding 3
Mode extension : CM (complete main)
Format settings, Endianness : Big
Codec ID : A_AC3
Duration : 21mn 34s
Bit rate mode : Constant
Bit rate : 384 Kbps
Channel(s) : 6 channels
Channel positions : Front: L C R, Side: L R, LFE
Sampling rate : 48.0 KHz
Bit depth : 16 bits
Compression mode : Lossy
Delay relative to video : 3ms
Stream size : 59.2 MiB (10%)
Language : English
Default : Yes
Forced : No

Text
ID : 3
Format : UTF-8
Codec ID : S_TEXT/UTF8
Codec ID/Info : UTF-8 Plain Text
Language : English
Default : Yes
Forced : No

Family.Guy.S12.Season.Premiere.Sneak.Peek.1080p.WEB-DL.AAC2.0.H.264-HKD.mkv 45.20 MB
Screenshot:

Sign up via clicking banner and a file link to creat a premium account.Then Get the access to protected links.

ExtMatrix Download Links

Family.Guy.S12.Season.Premiere.Sneak.Peek.1080p.WEB-DL.AAC2.0.H.264-HKD.mkv
Family.Guy.S12E01.Finders.Keepers.1080p.WEB-DL.DD5.1.H.264-CtrlHD.mkv
Family.Guy.S12E02.Vestigial.Peter.1080p.WEB-DL.DD5.1.H.264-CtrlHD.mkv
Family.Guy.S12E03.Quagmires.Quagmire.1080p.WEB-DL.DD5.1.H.264-CtrlHD.mkv
Family.Guy.S12E04.720p.HDTV.X264-DIMENSION.mkv
Family.Guy.S12E05.720p.HDTV.X264-DIMENSION.mkv
Family.Guy.S12E06.720p.HDTV.X264-DIMENSION.mkv

Click Here for downloading links Family Guy S12E04 1080p WEB-DL DD5 1 H 264 HKD

Click Here for downloading links Family Guy S12E05 1080p WEB-DL DD5 1 H 264 HKD

Click Here for downloading links Family Guy S12E06 1080p WEB-DL DD5 1 H 264 HKD

Click Here for downloading links Family Guy S12E07 1080p WEB-DL DD5 1 H 264 HKD

Click Here for downloading links Family Guy S12E08 1080p WEB-DL DD5 1 H 264 HKD