Useful link:

MediaInfo:
General
Complete name : Feeding.Mr.Baldwin.2013.1080p.WEB-DL.H264-RARBG.mkv
Format : Matroska
Format version : Version 4 / Version 2
File size : 3.61 GiB
Duration : 1h 34mn
Overall bit rate : 5 473 Kbps

Video
ID : 1
Format : AVC
Format/Info : Advanced Video Codec
Format profile : High@L4.0
Format settings, CABAC : Yes
Format settings, ReFrames : 4 frames
Codec ID : V_MPEG4/ISO/AVC
Duration : 1h 34mn
Bit rate : 4 980 Kbps
Width : 1 916 pixels
Height : 1 076 pixels
Display aspect ratio : 16:9
Frame rate mode : Constant
Frame rate : 23.976 fps
Color space : YUV
Chroma subsampling : 4:2:0
Bit depth : 8 bits
Scan type : Progressive
Bits/(Pixel*Frame) : 0.101
Stream size : 3.29 GiB (91%)
Title : Feeding.Mr.Baldwin.2013.1080p.WEB-DL.H264-RARBG
Language : English
Default : Yes
Forced : No
Color primaries : BT.709
Transfer characteristics : BT.709
Matrix coefficients : BT.709

Audio
ID : 2
Format : AC-3
Format/Info : Audio Coding 3
Mode extension : CM (complete main)
Format settings, Endianness : Big
Codec ID : A_AC3
Duration : 1h 34mn
Bit rate mode : Constant
Bit rate : 384 Kbps
Channel(s) : 6 channels
Channel positions : Front: L C R, Side: L R, LFE
Sampling rate : 48.0 KHz
Bit depth : 16 bits
Compression mode : Lossy
Stream size : 259 MiB (7%)
Title : Feeding.Mr.Baldwin.2013.1080p.WEB-DL.H264-RARBG
Language : English
Default : Yes
Forced : No

Menu
00:00:00.000 : en:A Special Arrangement
00:10:58.000 : en:Right-Hand Man
00:21:08.000 : en:Neighborhood Watch Zone
00:31:04.000 : en:Could Be Worse
00:41:02.000 : en:An Impatient Move
00:51:05.000 : en:People Change
00:59:26.000 : en:Break Things Apart
01:07:23.000 : en:Go in Heavy
01:14:58.000 : en:Clean Later
01:25:28.000 : en:Ready to Fly
01:30:22.000 : en:Credits

Screenshot:

Sign up via clicking banner and a file link to creat a premium account.Then Get the access to protected links.

ExtMatrix Download Links

Feeding.Mr.Baldwin.2013.1080p.WEB-DL.H264-RARBG.mkv