Warning: Invalid argument supplied for foreach() in /home/wwwroot/crazyhdsource.com/wp-content/plugins/wpExtMatrixLink/wpExtMatrixLink.php on line 138



Useful link:

MediaInfo:
General
Complete name : free.birds.2013.720p.blu.ray.x264-sparks.mkv
Format : Matroska
Format version : Version 2
File size : 3.28 GiB
Duration : 1h 31mn
Overall bit rate : 5 150 Kbps

Video
ID : 1
Format : AVC
Format/Info : Advanced Video Codec
Format profile : High@L4.1
Format settings, CABAC : Yes
Format settings, ReFrames : 5 frames
Codec ID : V_MPEG4/ISO/AVC
Duration : 1h 31mn
Bit rate : 3 641 Kbps
Width : 1 280 pixels
Height : 696 pixels
Display aspect ratio : 1.85:1
Frame rate mode : Constant
Frame rate : 23.976 fps
Color space : YUV
Chroma subsampling : 4:2:0
Bit depth : 8 bits
Scan type : Progressive
Bits/(Pixel*Frame) : 0.170
Stream size : 2.25 GiB (69%)
Writing library : x264 core 140 r2377 1ca7bb9
Encoding settings : cabac=1 / ref=5 / deblock=1:0:0 / analyse=0x3:0x133 / me=umh / subme=7 / psy=1 /

Audio
ID : 2
Format : DTS
Format/Info : Digital Theater Systems
Mode : 16
Format settings, Endianness : Big
Codec ID : A_DTS
Duration : 1h 31mn
Bit rate mode : Constant
Bit rate : 1 509 Kbps
Channel(s) : 6 channels
Channel positions : Front: L C R, Side: L R, LFE
Sampling rate : 48.0 KHz
Bit depth : 24 bits
Compression mode : Lossy
Stream size : 983 MiB (29%)
Language : English
Default : Yes
Forced : No

Menu
00:00:00.000 : en:00:00:00.000
00:03:48.186 : en:00:03:48.186
00:09:36.451 : en:00:09:36.451
00:13:31.811 : en:00:13:31.811
00:17:51.487 : en:00:17:51.487
00:22:35.104 : en:00:22:35.104
00:26:29.505 : en:00:26:29.505
00:30:57.022 : en:00:30:57.022
00:33:04.900 : en:00:33:04.900
00:36:19.260 : en:00:36:19.260
00:39:26.447 : en:00:39:26.447
00:40:29.469 : en:00:40:29.469
00:43:32.860 : en:00:43:32.860
00:46:35.292 : en:00:46:35.292
00:49:44.523 : en:00:49:44.523
00:54:15.419 : en:00:54:15.419
01:00:08.730 : en:01:00:08.730
01:02:53.061 : en:01:02:53.061
01:07:34.968 : en:01:07:34.968
01:10:32.812 : en:01:10:32.812
01:14:21.332 : en:01:14:21.332
01:16:43.224 : en:01:16:43.224
01:19:38.941 : en:01:19:38.941
01:23:57.741 : en:01:23:57.741

Screenshot:

Sign up via clicking banner and a file link to creat a premium account.Then Get the access to protected links.

ExtMatrix Download Links