External Links:

General
Complete name : Game.of.Thrones.S04E01.720p.HDTV.DD5.1.×264-DON.mkv
Format : Matroska
Format version : Version 4 / Version 2
File size : 1.99 GiB
Duration : 1h 0mn
Overall bit rate : 4 696 Kbps
Movie name : Game of Thrones S04E01 (2014) – Two Swords

Video
ID : 1
Format : AVC
Format/Info : Advanced Video Codec
Format profile : High@L4.1
Format settings, CABAC : Yes
Format settings, ReFrames : 9 frames
Codec ID : V_MPEG4/ISO/AVC
Duration : 1h 0mn
Bit rate : 4 218 Kbps
Width : 1 280 pixels
Height : 714 pixels
Display aspect ratio : 16:9
Frame rate mode : Constant
Frame rate : 23.976 fps
Color space : YUV
Chroma subsampling : 4:2:0
Bit depth : 8 bits
Scan type : Progressive
Bits/(Pixel*Frame) : 0.193
Stream size : 1.79 GiB (90%)
Writing library : x264 core 142 r2409kMod d6b4e63
Encoding settings : cabac=1 / ref=9 / deblock=1:-3:-3 / analyse=0x3:0x113 / me=umh / subme=11 / psy=1 /

Audio
ID : 2
Format : AC-3
Format/Info : Audio Coding 3
Mode extension : CM (complete main)
Format settings, Endianness : Big
Codec ID : A_AC3
Duration : 1h 0mn
Bit rate mode : Constant
Bit rate : 384 Kbps
Channel(s) : 2 channels
Channel positions : Front: L R
Sampling rate : 48.0 KHz
Bit depth : 16 bits
Compression mode : Lossy
Stream size : 167 MiB (8%)
Language : English
Default : Yes
Forced : No

Text #1
ID : 3
Format : UTF-8
Codec ID : S_TEXT/UTF8
Codec ID/Info : UTF-8 Plain Text
Language : English
Default : No
Forced : No

Text #2
ID : 4
Format : UTF-8
Codec ID : S_TEXT/UTF8
Codec ID/Info : UTF-8 Plain Text
Title : SDH
Language : English
Default : No
Forced : No

Sign up via clicking banner and a file link to creat a premium account.

ExtMatrix Download Links

Game of Thrones S04E01 1080i HDTV MPEG2 DD5.1-CtrlHD.ts
Game of Thrones S04E02 1080i HDTV MPEG2 DD5.1-CtrlHD.ts
Game.of.Thrones.S04E02.720p.HDTV.DD5.1.x264-DON.mkv
Game of Thrones S04E03 1080i HDTV MPEG2 DD5.1-CtrlHD.ts
Game of Thrones S04E04 1080i HDTV MPEG2 DD5.1-CtrlHD.ts
Game of Thrones S04E05 1080i HDTV MPEG2 DD5.1-CtrlHD.ts
Game of Thrones S04E06 1080i HDTV MPEG2 DD5.1-CtrlHD.ts
Game of Thrones S04E07 1080i HDTV MPEG2 DD5.1-CtrlHD.ts