Series Info
# of Seasons: 1
Country: US
Air Day: Friday
Air Time: 9:00 PM
First Aired: 2013-02-26
Rating: TV-PG
Series Status: New Series
Runtime: 60 Minutes
Network: CBS
Classification: Scripted
TVDB Rating: 6.0
External Links:

Golden Boy (2013– )

TV Series  –   –  tvDrama
6.2

Your rating:

   -/10
Ratings: 6.2/10 from 761 users
Reviews: 7 user | 4 critic

 

Golden Boy,” is a drama about the meteoric rise of an ambitious cop who becomes the youngest police commissioner in the history of New York City…
General
Complete name : Golden.Boy.S01E11.Longshot.1080p.WEB-DL.DD5.1.H.264-NTb.mkv
Format : Matroska
Format version : Version 2
File size : 1.60 GiB
Duration : 43mn 28s
Overall bit rate : 5 261 Kbps

Video
ID : 1
Format : AVC
Format/Info : Advanced Video Codec
Format profile : High@L4.0
Format settings, CABAC : Yes
Format settings, ReFrames : 4 frames
Codec ID : V_MPEG4/ISO/AVC
Duration : 43mn 28s
Bit rate : 4 772 Kbps
Width : 1 920 pixels
Height : 1 080 pixels
Display aspect ratio : 16:9
Frame rate mode : Constant
Frame rate : 23.976 fps
Color space : YUV
Chroma subsampling : 4:2:0
Bit depth : 8 bits
Scan type : Progressive
Bits/(Pixel*Frame) : 0.096
Stream size : 1.45 GiB (91%)
Language : English
Default : Yes
Forced : No
Color primaries : BT.709
Transfer characteristics : BT.709
Matrix coefficients : BT.709

Audio
ID : 2
Format : AC-3
Format/Info : Audio Coding 3
Mode extension : CM (complete main)
Format settings, Endianness : Big
Codec ID : A_AC3
Duration : 43mn 28s
Bit rate mode : Constant
Bit rate : 384 Kbps
Channel(s) : 6 channels
Channel positions : Front: L C R, Side: L R, LFE
Sampling rate : 48.0 KHz
Bit depth : 16 bits
Compression mode : Lossy
Stream size : 119 MiB (7%)
Language : English
Default : Yes
Forced : No

Text
ID : 3
Format : UTF-8
Codec ID : S_TEXT/UTF8
Codec ID/Info : UTF-8 Plain Text
Title : CC
Language : English
Default : Yes
Forced : No

File Name Size
Golden.Boy.S01E01.Pilot.for.Air.1080p.WEB DL.DD5.1.H.264 NTb.mkv 1.67 GB
Golden.Boy.S01E02.The.Price.of.Revenge.1080p.WEB DL.DD5.1.H.264 NTb.mkv 1.72 GB
Golden.Boy.S01E03.Young.Guns.1080p.WEB DL.DD5.1.H.264 NTb.mkv 1.67 GB
Golden.Boy.S01E04.Role.Models.1080p.WEB DL.DD5.1.H.264 NTb.mkv 1.54 GB
Golden.Boy.S01E05.Vicious.Cycle.1080p.WEB DL.DD5.1.H.264 NTb.mkv 1.58 GB
Golden.Boy.S01E06.Just.Say.No.1080p.WEB DL.DD5.1.H.264 NTb.mkv 1.60 GB
Golden.Boy.S01E07.McKenzie.On.Fire.1080p.WEB DL.DD5.1.H.264 NTb.mkv 1.59 GB
Golden.Boy.S01E08.Scapegoat.1080p.WEB DL.DD5.1.H.264 NTb.mkv 1.61 GB
Golden.Boy.S01E09.Atonement.1080p.WEB DL.DD5.1.H.264 NTb.mkv 1.65 GB
Golden.Boy.S01E10.Sacrifice.1080p.WEB DL.DD5.1.H.264 NTb.mkv 1.61 GB
Golden.Boy.S01E11.Longshot.1080p.WEB DL.DD5.1.H.264 NTb.mkv 1.60 GB
Golden.Boy.S01E12.The.Beast.of.Burden.1080p.WEB DL.DD5.1.H.264 NTb.mkv 1.59 GB
Golden.Boy.S01E13.Next.Question.1080p.WEB DL.DD5.1.H.264 NTb.mkv 1.69 GB

Screenshot:

Sign up via clicking banner and a file link to creat a premium account.

ExtMatrix Download Links

Click Here for downloading links Golden Boy S01 Complete 1080p WEB-DL DD5.1 H.264 NTb