Useful link:

MediaInfo:
General
Complete name : Gravity.2013.x264.WEB-DL-1080p.mkv
Format : Matroska
Format version : Version 4 / Version 2
File size : 2.76 GiB
Duration : 1h 30mn
Overall bit rate : 4 341 Kbps

Video
ID : 1
Format : AVC
Format/Info : Advanced Video Codec
Format profile : High@L4.0
Format settings, CABAC : Yes
Format settings, ReFrames : 5 frames
Codec ID : V_MPEG4/ISO/AVC
Duration : 1h 30mn
Bit rate : 3 871 Kbps
Width : 1 918 pixels
Height : 798 pixels
Display aspect ratio : 2.40:1
Frame rate mode : Constant
Frame rate : 23.976 fps
Color space : YUV
Chroma subsampling : 4:2:0
Bit depth : 8 bits
Scan type : Progressive
Bits/(Pixel*Frame) : 0.105
Stream size : 2.46 GiB (89%)
Language : English
Default : Yes
Forced : Yes
Color primaries : BT.709
Transfer characteristics : BT.709
Matrix coefficients : BT.709

Audio
ID : 2
Format : AC-3
Format/Info : Audio Coding 3
Mode extension : CM (complete main)
Format settings, Endianness : Big
Codec ID : A_AC3
Duration : 1h 30mn
Bit rate mode : Constant
Bit rate : 384 Kbps
Channel(s) : 6 channels
Channel positions : Front: L C R, Side: L R, LFE
Sampling rate : 48.0 KHz
Bit depth : 16 bits
Compression mode : Lossy
Stream size : 250 MiB (9%)
Language : English
Default : Yes
Forced : Yes

Menu
00:00:00.000 : en:1.
00:13:08.000 : en:2.
00:21:33.000 : en:3.
00:29:12.000 : en:4.
00:39:59.000 : en:5.
00:48:26.000 : en:6.
00:57:00.000 : en:7.
01:08:08.000 : en:8.
01:14:48.000 : en:9.
01:23:50.000 : en:10.

Screenshot:

Sign up via clicking banner and a file link to creat a premium account.Then Get the access to protected links.

ExtMatrix Download Links

Gravity.2013.x264.WEB-DL-1080p.mkv